<?xml version="1.0" standalone="no"?>
<!DOCTYPE svg PUBLIC "-//W3C//DTD SVG 1.1//EN" "http://www.w3.org/Graphics/SVG/1.1/DTD/svg11.dtd" >
<svg xmlns="http://www.w3.org/2000/svg" xmlns:xlink="http://www.w3.org/1999/xlink" version="1.1">
<metadata></metadata>
<defs>
<font id="roboto_slablight" horiz-adv-x="1130" >
<font-face units-per-em="2048" ascent="1638" descent="-410" />
<missing-glyph horiz-adv-x="498" />
<glyph unicode="&#xfb01;" horiz-adv-x="1209" d="M59 984v98h179v138q0 173 95.5 267t264.5 94q66 0 135 -15t140 -44l-19 -103q-60 25 -118 39t-131 14q-122 0 -184.5 -65t-62.5 -187v-138h621v-981l163 -13v-88h-445v88l163 13v883h-502v-883l163 -13v-88h-446v88l163 13v883h-179z" />
<glyph unicode="&#xfb02;" horiz-adv-x="1324" d="M75 0v88l163 13v883h-158v98h158v109q0 186 109 288t302 102q86 0 176.5 -17.5t181.5 -51.5h44v-1411l163 -13v-88h-445v88l163 13v1328q-63 20 -130 31.5t-146 11.5q-155 0 -226.5 -71t-71.5 -210v-109h279v-98h-279v-883l163 -13v-88h-446z" />
<glyph horiz-adv-x="0" />
<glyph unicode="&#xd;" horiz-adv-x="498" />
<glyph horiz-adv-x="0" />
<glyph unicode="&#x9;" horiz-adv-x="0" />
<glyph unicode=" "  horiz-adv-x="498" />
<glyph unicode="&#x09;" horiz-adv-x="498" />
<glyph unicode="&#xa0;" horiz-adv-x="498" />
<glyph unicode="!" horiz-adv-x="458" d="M143 0v167h142v-167h-142zM154 478v978h119v-978h-119z" />
<glyph unicode="&#x22;" horiz-adv-x="711" d="M166 1083l2 255v222h102v-216l-33 -261h-71zM405 1083l3 258v219h102v-216l-33 -261h-72z" />
<glyph unicode="#" horiz-adv-x="1246" d="M63 410v93h272l83 441h-279v96h297l79 416h99l-79 -416h315l79 416h99l-79 -416h230v-96h-248l-83 -441h256v-93h-274l-77 -410h-99l77 410h-314l-77 -410h-99l77 410h-255zM434 503h315l83 441h-315z" />
<glyph unicode="$" horiz-adv-x="1097" d="M82 412l3 6h111q0 -177 101.5 -255t244.5 -78q147 0 233.5 77.5t86.5 196.5q0 111 -72 181t-254 134q-208 66 -308 159t-100 262q0 162 100 264t272 116v202h102v-202q175 -16 271.5 -131t94.5 -311l-3 -5h-112q0 152 -80.5 247t-223.5 95q-148 0 -224.5 -77.5 t-76.5 -195.5q0 -114 68 -183.5t261 -133.5q206 -69 305.5 -160.5t99.5 -258.5q0 -166 -103.5 -265.5t-279.5 -113.5v-190h-102v189q-181 12 -300 116t-115 315z" />
<glyph unicode="%" horiz-adv-x="1458" d="M77 1099v77q0 127 78.5 214t206.5 87t206.5 -87t78.5 -214v-77q0 -126 -78.5 -212.5t-204.5 -86.5q-129 0 -208 86.5t-79 212.5zM174 1099q0 -88 49 -150t141 -62q89 0 137.5 62t48.5 150v77q0 88 -49 151t-139 63t-139 -63t-49 -151v-77zM366 169l711 1138l74 -48 l-711 -1138zM810 279v78q0 126 78.5 213t205.5 87q128 0 207 -87t79 -213v-78q0 -127 -79 -213.5t-205 -86.5q-129 0 -207.5 86.5t-78.5 213.5zM906 279q0 -88 49 -150.5t141 -62.5q89 0 138 62t49 151v78q0 91 -49 152t-140 61q-90 0 -139 -61.5t-49 -151.5v-78z" />
<glyph unicode="&#x26;" horiz-adv-x="1269" d="M74 371q0 120 72.5 216.5t209.5 196.5l14 10q-81 101 -119.5 183.5t-38.5 169.5q0 158 88.5 244t243.5 86q144 0 228.5 -81t84.5 -204q0 -91 -45 -155.5t-130 -129.5l-158 -122l411 -480q49 71 76 159t27 187h111q0 -128 -37 -235t-105 -194l185 -217l-2 -5h-138 l-122 141q-85 -78 -186 -120t-218 -42q-209 0 -330.5 107t-121.5 285zM193 371q0 -124 85.5 -207.5t247.5 -83.5q92 0 179.5 36t157.5 103l-414 482l-8.5 8.5t-5.5 7.5l-47 -36q-115 -94 -155 -170t-40 -140zM332 1149q0 -66 31.5 -138t95.5 -150l177 132q59 45 83.5 94 t24.5 105q0 79 -53 131t-147 52q-102 0 -157 -65t-55 -161z" />
<glyph unicode="'" horiz-adv-x="438" d="M166 1090l8 266v204h102v-195l-39 -275h-71z" />
<glyph unicode="(" horiz-adv-x="636" d="M114 573v15q0 363 138.5 651t309.5 385h6l26 -73q-145 -103 -253 -366t-108 -594v-20q0 -331 108 -594t253 -370l-26 -70h-6q-173 100 -310.5 382t-137.5 654z" />
<glyph unicode=")" horiz-adv-x="629" d="M11 -393q144 102 252.5 367t108.5 597v20q0 329 -110.5 595.5t-250.5 368.5l25 69l6 1q170 -98 309.5 -386t139.5 -651v-15q0 -372 -138.5 -654t-310.5 -382l-6 1z" />
<glyph unicode="*" horiz-adv-x="952" d="M66 1108l32 101l332 -123l-4 370h104l-8 -373l324 127l33 -101l-333 -115l223 -294l-86 -63l-213 305l-204 -303l-85 61l217 300z" />
<glyph unicode="+" horiz-adv-x="1145" d="M73 628v112h434v466h120v-466h444v-112h-444v-482h-120v482h-434z" />
<glyph unicode="," horiz-adv-x="392" d="M60 -229q47 66 69.5 131t22.5 144v142h119v-140q0 -92 -37.5 -180t-102.5 -149z" />
<glyph unicode="-" horiz-adv-x="793" d="M154 570v101h478v-101h-478z" />
<glyph unicode="." horiz-adv-x="466" d="M145 0v164h137v-164h-137z" />
<glyph unicode="/" horiz-adv-x="798" d="M0 -125l608 1581h108l-608 -1581h-108z" />
<glyph unicode="0" horiz-adv-x="1158" d="M121 565v325q0 281 119.5 434t331.5 153q213 0 333.5 -153t120.5 -434v-325q0 -282 -119.5 -434t-332.5 -152q-212 0 -332.5 152.5t-120.5 433.5zM240 547q0 -222 86.5 -344.5t247.5 -122.5q162 0 247 122t85 345v363q0 224 -85.5 344.5t-248.5 120.5q-162 0 -247 -121 t-85 -344v-363z" />
<glyph unicode="1" horiz-adv-x="831" d="M88 1288v84l407 88v-1359l261 -13v-88h-642v88l261 13v1228z" />
<glyph unicode="2" horiz-adv-x="1116" d="M76 1043q-5 182 117.5 308t333.5 126q188 0 300.5 -108t112.5 -290q0 -120 -75.5 -243.5t-209.5 -275.5l-402 -454l2 -5h635l10 205h106v-306h-905v92l477 541q133 150 187.5 250t54.5 192q0 135 -77 217.5t-216 82.5q-166 0 -252 -92t-86 -246h-111z" />
<glyph unicode="3" horiz-adv-x="1102" d="M75 389l2 6h111q0 -139 96.5 -227t249.5 -88q155 0 242 80.5t87 230.5q0 153 -91 226.5t-260 73.5h-138v102h138q159 0 241 79.5t82 204.5q0 136 -77 217t-228 81q-141 0 -230.5 -82.5t-89.5 -217.5h-112l-2 6q-5 170 119.5 283t314.5 113q194 0 309.5 -107t115.5 -297 q0 -103 -64 -193.5t-180 -134.5q136 -39 203.5 -131.5t67.5 -218.5q0 -194 -125.5 -305t-322.5 -111q-191 0 -327.5 108.5t-131.5 301.5z" />
<glyph unicode="4" horiz-adv-x="1178" d="M63 368v68l670 1020h131v-987h228v-101h-228v-267l163 -13v-88h-445v88l163 13v267h-682zM205 469h540v830l-6 2l-51 -109z" />
<glyph unicode="5" horiz-adv-x="1070" d="M97 377l2 6h107q0 -147 83 -225t222 -78q163 0 243.5 98t80.5 284q0 163 -80.5 261.5t-225.5 98.5q-140 0 -213.5 -44.5t-106.5 -134.5l-97 16l80 797h732v-237h-97l-12 126h-520l-54 -519q55 50 121 77t179 30q186 3 300 -125t114 -344q0 -221 -111 -353t-333 -132 q-180 0 -299.5 100.5t-114.5 297.5z" />
<glyph unicode="6" horiz-adv-x="1124" d="M121 562v265q0 318 138.5 484t355.5 166q75 0 148 -17t130 -49l-29 -96q-57 31 -114 45.5t-135 14.5q-169 0 -272 -133t-103 -404v-49q60 78 153 125t206 47q196 0 310 -135t114 -352q0 -215 -122.5 -355t-318.5 -140q-203 0 -332 152.5t-129 430.5zM240 553 q0 -227 95 -350t247 -123q146 0 233.5 114.5t87.5 279.5q0 175 -85 282t-243 107q-121 0 -211.5 -63t-123.5 -162v-85z" />
<glyph unicode="7" horiz-adv-x="1115" d="M76 1149v307h955v-102q-236 -279 -361.5 -568t-167.5 -664l-10 -122h-120l10 122q43 371 174.5 670.5t350.5 561.5h-717l-8 -205h-106z" />
<glyph unicode="8" horiz-adv-x="1127" d="M92 386q0 129 79 224.5t212 136.5q-115 40 -182.5 128t-67.5 206q0 188 118.5 292t307.5 104q187 0 307.5 -104.5t120.5 -291.5q0 -118 -68.5 -206.5t-183.5 -128.5q132 -41 212.5 -137t80.5 -223q0 -196 -131 -301.5t-336 -105.5q-210 0 -339.5 105t-129.5 302zM211 385 q0 -143 97 -224t253 -81q151 0 249.5 81.5t98.5 223.5q0 138 -100.5 224.5t-249.5 86.5q-152 0 -250 -86.5t-98 -224.5zM252 1082q0 -129 86 -206.5t223 -77.5q133 0 220 77.5t87 206.5q0 126 -89 209.5t-220 83.5q-135 0 -221 -80t-86 -213z" />
<glyph unicode="9" horiz-adv-x="1138" d="M84 958q0 221 127 370t316 149q213 0 338.5 -139t125.5 -420v-305q0 -319 -131.5 -476.5t-354.5 -157.5q-77 0 -156 15t-150 46l22 100q68 -32 134.5 -46t149.5 -14q170 0 266 130t96 401v42q-54 -91 -143 -140.5t-198 -49.5q-199 0 -320.5 137.5t-121.5 357.5zM208 958 q0 -169 85.5 -281.5t232.5 -112.5q130 0 217 66.5t124 164.5v132q0 226 -89.5 337t-245.5 111q-141 0 -232.5 -122t-91.5 -295z" />
<glyph unicode=":" horiz-adv-x="389" d="M131 0v164h137v-164h-137zM131 0zM131 916v164h137v-164h-137z" />
<glyph unicode=";" horiz-adv-x="391" d="M65 0zM65 -229q47 66 69.5 131t22.5 144v142h119v-140q0 -92 -37.5 -180t-102.5 -149zM135 918v164h137v-164h-137z" />
<glyph unicode="&#x3c;" horiz-adv-x="1022" d="M76 501v97l827 378v-126l-614 -272l-108 -28v-6l108 -28l614 -268v-126z" />
<glyph unicode="=" horiz-adv-x="1127" d="M147 422v106h834v-106h-834zM147 833v106h834v-106h-834z" />
<glyph unicode="&#x3e;" horiz-adv-x="1056" d="M125 113v124l631 274l108 27v6l-108 29l-631 271v123l844 -378v-97z" />
<glyph unicode="?" horiz-adv-x="925" d="M66 1122q-3 165 103.5 260t272.5 95q179 0 280.5 -101t101.5 -273q0 -135 -66.5 -239.5t-188.5 -218.5q-62 -53 -75.5 -99t-13.5 -142h-119q1 131 22 182.5t114 136.5q107 110 157 186.5t50 192.5q0 128 -68 198t-194 70q-118 0 -190 -68.5t-73 -185.5h-111zM358 0v154 h138v-154h-138z" />
<glyph unicode="@" horiz-adv-x="1809" d="M86 478q18 424 252.5 683t609.5 259q391 0 587.5 -241.5t179.5 -665.5q-10 -216 -117 -375t-313 -159q-78 0 -131 51t-69 141q-53 -96 -130.5 -144t-180.5 -48q-131 0 -199 119.5t-49 317.5q23 254 141 407.5t286 153.5q93 0 150.5 -27t126.5 -81l-2 -2h3l-50 -574 q-10 -132 30 -180t95 -48q142 0 224.5 124.5t92.5 323.5q19 389 -149 604.5t-530 215.5q-324 0 -533.5 -235.5t-226.5 -619.5q-19 -379 163.5 -612.5t519.5 -233.5q88 0 178 22t152 57l31 -75q-64 -41 -167 -65t-198 -24q-380 0 -588 249.5t-189 681.5zM636 416 q-16 -155 26 -247t138 -92q86 0 156 43t123 157v8.5t1 7.5l47 543q-32 23 -71.5 36.5t-86.5 13.5q-134 0 -222 -119t-111 -351z" />
<glyph unicode="A" horiz-adv-x="1485" d="M55 0v88l107 8l517 1360h113l512 -1360l109 -8v-88h-359v88l127 10l-120 326h-654l-121 -326l127 -10v-88h-358zM447 531h575l-283 770h-6z" />
<glyph unicode="B" horiz-adv-x="1322" d="M71 0v88l163 13v1253l-163 13v89h163h425q227 0 353.5 -95.5t126.5 -287.5q0 -112 -63.5 -195t-172.5 -115q133 -24 216 -125t83 -233q0 -195 -126.5 -300t-338.5 -105h-666zM353 101h384q161 0 253 79.5t92 222.5q0 131 -83.5 215t-242.5 84h-403v-601zM353 803h335 q158 0 244.5 69.5t86.5 204.5q0 138 -92 207.5t-268 69.5h-306v-551z" />
<glyph unicode="C" horiz-adv-x="1349" d="M103 718v19q0 325 177.5 532.5t464.5 207.5q162 0 289.5 -63.5t195.5 -157.5v-256h-93l-17 221q-58 69 -151 111.5t-215 42.5q-244 0 -388 -177.5t-144 -458.5v-21q0 -281 142.5 -459.5t374.5 -178.5q123 0 223.5 43t157.5 111l17 221h93v-256q-68 -94 -198.5 -157 t-292.5 -63q-280 0 -458 207.5t-178 531.5z" />
<glyph unicode="D" horiz-adv-x="1401" d="M71 0v88l163 13v1253l-163 13v89h163h423q267 0 441 -178t174 -457v-187q0 -280 -174 -457t-441 -177h-586zM353 101h304q216 0 355.5 151t139.5 382v190q0 228 -140 379t-355 151h-304v-1253z" />
<glyph unicode="E" horiz-adv-x="1286" d="M71 0v88l163 13v1253l-163 13v89h163h917v-320h-106l-9 218h-683v-547h597v-102h-597v-604h688l9 218h106v-319h-1085z" />
<glyph unicode="F" horiz-adv-x="1258" d="M71 0v88l163 13v1253l-163 13v89h1092v-320h-106l-9 218h-695v-569h608v-103h-608v-581l163 -13v-88h-445z" />
<glyph unicode="G" horiz-adv-x="1420" d="M95 718v31q0 324 178 526t467 202q164 0 290 -54.5t205 -149.5v-253h-93l-21 213q-59 65 -153 103.5t-219 38.5q-248 0 -391 -174t-143 -450v-33q0 -284 140.5 -461t379.5 -177q142 0 243 37t142 79v353l-280 5v97h399v-491q-52 -64 -181 -122.5t-323 -58.5 q-284 0 -462 205t-178 534z" />
<glyph unicode="H" horiz-adv-x="1537" d="M71 0v88l163 13v1253l-163 13v89h445v-89l-163 -13v-582h828v582l-163 13v89h163h119h163v-89l-163 -13v-1253l163 -13v-88h-445v88l163 13v569h-828v-569l163 -13v-88h-445z" />
<glyph unicode="I" horiz-adv-x="627" d="M91 0v88l163 13v1253l-163 13v89h446v-89l-163 -13v-1253l163 -13v-88h-446z" />
<glyph unicode="J" horiz-adv-x="1158" d="M54 395l2 6h112q0 -158 84 -239.5t240 -81.5q133 0 219 90.5t86 242.5v941l-163 13v89h283h163v-89l-163 -13v-941q0 -199 -118.5 -316.5t-306.5 -117.5q-205 0 -324 106q-114 102 -114 294v16z" />
<glyph unicode="K" horiz-adv-x="1417" d="M71 0v88l163 13v1253l-163 13v89h445v-89l-163 -13v-568h199l490 573l-140 8v89h407v-89l-128 -12l-521 -615l562 -640l131 -12v-88h-415v88l138 8l-523 589h-200v-584l163 -13v-88h-445z" />
<glyph unicode="L" horiz-adv-x="1178" d="M71 0v88l163 13v1253l-163 13v89h163h120h163v-89l-163 -13v-1253h605l9 205h106v-306h-1003z" />
<glyph unicode="M" horiz-adv-x="1861" d="M71 0v88l163 13v1253l-163 13v89h163h157l535 -1282h6l537 1282h321v-89l-163 -13v-1253l163 -13v-88h-445v88l163 13v542l10 637l-6 2l-541 -1282h-83l-540 1276l-6 -1l11 -632v-542l163 -13v-88h-445z" />
<glyph unicode="N" horiz-adv-x="1536" d="M71 0v88l163 13v1253l-163 13v89h163h120l827 -1250l6 1v1147l-163 13v89h282h163v-89l-163 -13v-1354h-119l-827 1252l-6 -1v-1150l163 -13v-88h-446z" />
<glyph unicode="O" horiz-adv-x="1468" d="M106 718v19q0 327 172 533.5t448 206.5q280 0 455.5 -206.5t175.5 -533.5v-19q0 -328 -175 -533.5t-455 -205.5q-276 0 -448.5 206t-172.5 533zM226 718q0 -285 135 -460t366 -175q237 0 373.5 174.5t136.5 460.5v21q0 283 -138 458t-373 175q-231 0 -365.5 -175 t-134.5 -458v-21z" />
<glyph unicode="P" horiz-adv-x="1276" d="M71 0v88l163 13v1253l-163 13v89h163h451q229 0 354.5 -116.5t125.5 -308.5q0 -194 -125.5 -310t-354.5 -116h-332v-504l163 -13v-88h-445zM353 707h332q180 0 270.5 91.5t90.5 230.5q0 140 -90 232.5t-271 92.5h-332v-647z" />
<glyph unicode="Q" horiz-adv-x="1463" d="M106 718v19q0 327 172 533.5t448 206.5q280 0 455.5 -206.5t175.5 -533.5v-19q0 -213 -77.5 -379.5t-215.5 -259.5l301 -215l-83 -76l-328 233q-53 -21 -110 -31.5t-117 -10.5q-276 0 -448.5 206t-172.5 533zM226 718q0 -285 135 -460t366 -175q237 0 373.5 174.5 t136.5 460.5v21q0 283 -138 458t-373 175q-231 0 -365.5 -175t-134.5 -458v-21z" />
<glyph unicode="R" horiz-adv-x="1374" d="M71 0v87l163 14v1252l-163 14v88h605q234 0 359.5 -102t125.5 -295q0 -114 -67 -205t-189 -132q135 -34 194.5 -121.5t59.5 -220.5v-133q0 -77 24 -114t73 -40l49 -3v-89h-76q-106 0 -148 72t-42 176v129q0 132 -84.5 209.5t-235.5 80.5h-366v-566l163 -14v-87h-445z M353 769h309q197 0 288 79t91 211q0 140 -91 217t-274 77h-323v-584z" />
<glyph unicode="S" horiz-adv-x="1220" d="M109 191v255h98l17 -213q66 -75 169 -114t224 -39q172 0 278.5 76t106.5 201q0 119 -89 194.5t-310 133.5q-239 60 -362 156t-123 259q0 167 140 272t361 105q159 0 283.5 -55t196.5 -149v-249h-98l-17 206q-54 68 -147 106.5t-218 38.5q-180 0 -280.5 -78t-100.5 -194 q0 -110 90.5 -183.5t313.5 -129.5q235 -60 357.5 -162t122.5 -269q0 -174 -142 -277t-363 -103q-156 0 -289.5 55t-218.5 157z" />
<glyph unicode="T" horiz-adv-x="1280" d="M60 1149v307h1158v-307h-106l-9 205h-404v-1253l163 -13v-88h-446v88l163 13v1253h-404l-8 -205h-107z" />
<glyph unicode="U" horiz-adv-x="1487" d="M60 1367v89h163h119h163v-89l-163 -13v-885q0 -186 110 -287.5t287 -101.5q180 0 293 101t113 288v885l-163 13v89h445v-89l-163 -13v-885q0 -238 -145.5 -364t-379.5 -126q-230 0 -373 126.5t-143 363.5v885z" />
<glyph unicode="V" horiz-adv-x="1455" d="M52 1367v89h378v-89l-136 -11l402 -1110l29 -97h6l29 97l401 1110l-136 11v89h378v-89l-113 -9l-506 -1358h-113l-507 1358z" />
<glyph unicode="W" horiz-adv-x="1937" d="M43 1367v89h380v-89l-148 -11l230 -944l44 -222h6l54 222l320 1044h113l319 -1044l53 -225l6 1l47 224l227 944l-148 11v89h380v-89l-109 -8l-339 -1359h-113l-339 1117l-38 153h-6l-36 -153l-342 -1117h-113l-339 1359z" />
<glyph unicode="X" horiz-adv-x="1397" d="M54 0v88l122 10l453 640l-438 619l-122 10v89h400v-89l-139 -6l368 -532l369 532l-137 6v89h399v-89l-122 -10l-437 -619l453 -640l123 -10v-88h-399v88l137 6l-384 553l-385 -553l138 -6v-88h-399z" />
<glyph unicode="Y" horiz-adv-x="1423" d="M55 1367v89h400v-89l-140 -10l394 -710l396 710l-140 10v89h401v-89l-124 -10l-474 -825v-431l163 -13v-88h-446v88l163 13v438l-470 818z" />
<glyph unicode="Z" horiz-adv-x="1220" d="M92 0v92l857 1262h-716l-8 -205h-107v307h977v-87l-861 -1268h778l9 205h107v-306h-1036z" />
<glyph unicode="[" horiz-adv-x="548" d="M157 -312v1976h329v-102h-210v-1772h210v-102h-329z" />
<glyph unicode="\" horiz-adv-x="810" d="M36 1456h116l608 -1581h-116z" />
<glyph unicode="]" horiz-adv-x="526" d="M23 -210h210v1772h-210v102h330v-1976h-330v102z" />
<glyph unicode="^" horiz-adv-x="844" d="M71 729l299 727h89l299 -727h-116l-197 484l-29 105h-6l-30 -105l-194 -484h-115z" />
<glyph unicode="_" horiz-adv-x="1149" d="M119 0h881v-101h-881v101z" />
<glyph unicode="`" horiz-adv-x="562" d="M84 1471l2 5h154l202 -266h-117z" />
<glyph unicode="a" d="M104 283q0 150 129 238t350 88h239v143q0 116 -74.5 182t-208.5 66q-90 0 -164.5 -24.5t-124.5 -66.5l-10 -145h-99l1 208q75 58 179.5 94t222.5 36q179 0 288 -91t109 -261v-532q0 -33 1.5 -63.5t6.5 -59.5l108 -7v-88h-213q-12 55 -17 95t-5 81q-60 -85 -160 -141 t-225 -56q-159 0 -246 82t-87 222zM223 279q0 -87 60.5 -140.5t166.5 -53.5q130 0 229 60t143 155v217h-241q-163 0 -260.5 -67.5t-97.5 -170.5z" />
<glyph unicode="b" horiz-adv-x="1133" d="M-8 1471v89h282v-648q54 91 138 140.5t200 49.5q195 0 305 -155.5t110 -414.5v-21q0 -243 -110 -387.5t-303 -144.5q-119 0 -205 47.5t-139 136.5l-13 -163h-102v1458zM274 288q40 -94 119.5 -149.5t198.5 -55.5q156 0 235 116t79 312v21q0 207 -80 336.5t-236 129.5 q-126 0 -202.5 -62t-113.5 -159v-489z" />
<glyph unicode="c" horiz-adv-x="1094" d="M97 520v42q0 236 121 388t340 152q125 0 229 -47t169 -128l5 -236h-102l-19 192q-48 54 -119.5 85.5t-162.5 31.5q-174 0 -257.5 -124.5t-83.5 -313.5v-42q0 -192 83 -316t259 -124q119 0 210 68t91 189h106l2 -6v-12q0 -142 -120 -239q-124 -101 -289 -101 q-220 0 -341 151.5t-121 389.5z" />
<glyph unicode="d" horiz-adv-x="1216" d="M97 511v21q0 259 109.5 414.5t305.5 155.5q113 0 196 -47.5t138 -135.5v539l-163 13v89h163h120v-1459l163 -13v-88h-270l-10 156q-54 -85 -139 -131t-200 -46q-194 0 -303.5 145t-109.5 387zM218 511q0 -196 78.5 -312t236.5 -116q115 0 192.5 52t120.5 143v512 q-40 92 -115.5 150t-195.5 58q-158 0 -237.5 -129.5t-79.5 -336.5v-21z" />
<glyph unicode="e" horiz-adv-x="1102" d="M102 509v55q0 232 133.5 385t322.5 153q199 0 313 -126t114 -336v-102h-764v-29q0 -182 97.5 -305.5t255.5 -123.5q111 0 190 31t135 89l51 -82q-61 -64 -154 -101.5t-222 -37.5q-204 0 -338 149.5t-134 380.5zM230 644l2 -5h634v30q0 141 -83 236t-225 95 q-132 0 -222.5 -101.5t-105.5 -254.5z" />
<glyph unicode="f" horiz-adv-x="725" d="M80 984v98h179v158q0 163 82 252t229 89q32 0 66 -5t69 -14l-15 -99q-24 6 -49 9.5t-59 3.5q-98 0 -150.5 -62t-52.5 -174v-158h258v-98h-258v-883l163 -13v-88h-446v88l163 13v883h-179z" />
<glyph unicode="g" horiz-adv-x="1148" d="M102 511v21q0 259 110.5 414.5t306.5 155.5q115 0 199.5 -50.5t139.5 -142.5l14 173h101v-1068q0 -209 -113 -330t-315 -121q-78 0 -166.5 19t-154.5 52l32 101q65 -31 136.5 -48t150.5 -17q154 0 232 91t78 253v137q-55 -83 -139 -127.5t-197 -44.5q-195 0 -305 145 t-110 387zM222 511q0 -195 79.5 -311.5t237.5 -116.5q117 0 194.5 53t119.5 146v502q-40 95 -115 154.5t-197 59.5q-158 0 -238.5 -130t-80.5 -336v-21z" />
<glyph unicode="h" horiz-adv-x="1298" d="M62 0v88l163 13v1357l-163 13v89h282v-663q54 97 144 151t210 54q171 0 262.5 -106t91.5 -329v-566l163 -13v-88h-446v88l163 13v568q0 176 -69.5 252.5t-191.5 76.5q-123 0 -205.5 -64.5t-121.5 -171.5v-661l163 -13v-88h-445z" />
<glyph unicode="i" horiz-adv-x="638" d="M89 0v88l163 13v879l-163 13v89h282v-981l163 -13v-88h-445zM252 1392v168h119v-168h-119z" />
<glyph unicode="j" horiz-adv-x="562" d="M-13 -418l13 101q15 -5 42.5 -10t49.5 -5q90 0 140 61.5t50 181.5v1069l-163 13v89h283v-1171q0 -167 -80 -257.5t-223 -90.5q-31 0 -57.5 5t-54.5 14zM276 1396v164h120v-164h-120z" />
<glyph unicode="k" horiz-adv-x="1194" d="M62 0v88l163 13v1357l-163 13v89h282v-930h127l329 351l-2 5l-99 7v89h381v-89l-126 -12l-370 -393l421 -489l120 -11v-88h-380v88l114 7l-376 432h-139v-426l163 -13v-88h-445z" />
<glyph unicode="l" horiz-adv-x="610" d="M73 0v88l163 13v1357l-163 13v89h282v-1459l163 -13v-88h-445z" />
<glyph unicode="m" horiz-adv-x="1959" d="M71 0v88l163 13v879l-163 13v89h269l11 -179q52 95 139 147t207 52q124 0 207 -60.5t119 -184.5q49 114 139.5 179.5t220.5 65.5q173 0 267.5 -115t94.5 -356v-529l163 -14v-88h-447v88l163 14v531q0 200 -70.5 282.5t-196.5 82.5q-140 0 -215.5 -89t-93.5 -227 q0 -8 0.5 -15t0.5 -18v-548l163 -13v-88h-446v88l163 13v532q0 196 -71.5 280.5t-196.5 84.5q-128 0 -202.5 -64.5t-104.5 -173.5v-659l163 -13v-88h-446z" />
<glyph unicode="n" horiz-adv-x="1319" d="M75 0v88l163 13v879l-163 13v89h269l11 -189q52 100 140.5 154.5t209.5 54.5q176 0 268 -107.5t92 -335.5v-558l163 -13v-88h-446v88l163 13v557q0 186 -69.5 263t-197.5 77q-126 0 -205.5 -66.5t-114.5 -176.5v-654l163 -13v-88h-446z" />
<glyph unicode="o" horiz-adv-x="1152" d="M97 524v33q0 239 131 392t347 153q217 0 348 -153t131 -392v-33q0 -240 -130.5 -392.5t-346.5 -152.5q-218 0 -349 152.5t-131 392.5zM217 524q0 -188 95 -316t265 -128q167 0 262 128t95 316v33q0 185 -95.5 314t-263.5 129t-263 -129t-95 -314v-33z" />
<glyph unicode="p" horiz-adv-x="1197" d="M65 -327l163 13v1294l-163 13v89h263l15 -168q55 90 140.5 139t200.5 49q195 0 305 -155.5t110 -414.5v-21q0 -243 -110 -387.5t-303 -144.5q-114 0 -199.5 43.5t-139.5 123.5v-460l163 -13v-89h-445v89zM347 271q41 -89 118.5 -140t193.5 -51q157 0 238.5 118t81.5 313 v21q0 206 -82 336t-240 130q-121 0 -196.5 -57.5t-113.5 -149.5v-520z" />
<glyph unicode="q" horiz-adv-x="1144" d="M97 511v21q0 259 109.5 414.5t305.5 155.5q112 0 194.5 -46.5t137.5 -133.5l12 160h105v-1396l163 -13v-89h-446v89l163 13v456q-55 -79 -138 -121t-193 -42q-194 0 -303.5 145t-109.5 387zM218 511q0 -196 78.5 -313.5t236.5 -117.5q112 0 188.5 50.5t119.5 138.5v528 q-42 89 -116.5 146t-189.5 57q-158 0 -237.5 -130.5t-79.5 -337.5v-21z" />
<glyph unicode="r" horiz-adv-x="823" d="M89 0v88l163 13v879l-163 13v89h163h104l15 -180v-13q46 100 125.5 156.5t188.5 56.5q23 0 44.5 -3.5t35.5 -7.5l-16 -112l-89 6q-113 0 -185.5 -63.5t-103.5 -174.5v-646l163 -13v-88h-445z" />
<glyph unicode="s" horiz-adv-x="1025" d="M116 107v218h97l17 -154q48 -48 121.5 -69.5t153.5 -21.5q130 0 205 57t75 138q0 76 -62.5 133t-225.5 93q-193 42 -286.5 111.5t-93.5 194.5q0 124 105 209.5t277 85.5q119 0 217.5 -36.5t160.5 -98.5l5 -219h-98l-14 153q-45 47 -113.5 73t-157.5 26 q-131 0 -196.5 -56.5t-65.5 -132.5q0 -75 56.5 -124t225.5 -86q193 -43 289 -117.5t96 -202.5q0 -135 -109.5 -218.5t-289.5 -83.5q-120 0 -218.5 33.5t-170.5 94.5z" />
<glyph unicode="t" horiz-adv-x="733" d="M65 984v98h186v277h121v-277h238v-98h-238v-705q0 -106 38.5 -150.5t102.5 -44.5q29 0 56.5 2.5t63.5 8.5l18 -89q-30 -13 -73 -20t-86 -7q-114 0 -177.5 72t-63.5 228v705h-186z" />
<glyph unicode="u" horiz-adv-x="1232" d="M46 993v89h134h119v-629q0 -198 67.5 -284t191.5 -86q136 0 216.5 60t113.5 166v671l-154 13v89h154h120v-981l145 -13v-88h-250l-11 178q-51 -95 -139.5 -147t-208.5 -52q-171 0 -267.5 116t-96.5 360v525z" />
<glyph unicode="v" horiz-adv-x="1155" d="M47 993v89h364v-89l-135 -10l270 -712l35 -127h6l38 127l266 712l-135 10v89h364v-89l-106 -9l-382 -984h-96l-383 984z" />
<glyph unicode="w" horiz-adv-x="1690" d="M56 993v89h363v-89l-136 -11l175 -631l41 -193h6l51 193l231 731h102l231 -731l52 -198h6l45 198l170 631l-136 11v89h364v-89l-105 -8l-287 -985h-102l-241 740l-47 187h-6l-47 -187l-237 -740h-102l-286 985z" />
<glyph unicode="x" horiz-adv-x="1192" d="M73 0v88l121 11l342 452l-326 431l-122 11v89h367v-89l-112 -6l258 -347l259 348l-111 5v89h367v-89l-121 -11l-326 -431l341 -452l122 -11v-88h-366v88l111 5l-275 368l-274 -368l111 -5v-88h-366z" />
<glyph unicode="y" horiz-adv-x="1174" d="M46 993v89h372v-89l-129 -10l264 -690l38 -130h6l296 820l-132 10v89h374v-89l-110 -9l-437 -1157q-42 -110 -109 -187t-196 -77q-21 0 -51 4.5t-44 9.5l14 100q12 -2 38.5 -4.5t37.5 -2.5q79 0 125 55t81 143l56 145l-384 971z" />
<glyph unicode="z" horiz-adv-x="1080" d="M116 0v88l652 891h-534l-8 -204h-107v307h800v-89l-656 -892h588l9 205h107v-306h-851z" />
<glyph unicode="{" horiz-adv-x="697" d="M63 543v104q118 0 174.5 67.5t56.5 189.5v228q0 171 77 290.5t260 174.5l27 -79q-128 -41 -186.5 -141.5t-58.5 -244.5v-228q0 -110 -45.5 -191t-137.5 -118q92 -39 137.5 -120.5t45.5 -190.5v-226q0 -143 59.5 -241.5t187.5 -140.5l-29 -80q-183 55 -260 173.5 t-77 288.5v226q0 122 -56.5 190.5t-174.5 68.5z" />
<glyph unicode="|" horiz-adv-x="426" d="M150 -270v1726h101v-1726h-101z" />
<glyph unicode="}" horiz-adv-x="696" d="M27 -324q127 42 186.5 141t59.5 241v226q0 112 47.5 193t146.5 117q-99 35 -146.5 116t-47.5 194v228q0 144 -58.5 244.5t-185.5 141.5l26 79q182 -55 260 -174.5t78 -290.5v-228q0 -122 56 -189.5t175 -67.5v-104q-119 0 -175 -68.5t-56 -190.5v-226 q0 -170 -77.5 -288.5t-260.5 -173.5z" />
<glyph unicode="~" horiz-adv-x="1376" d="M121 474q0 131 79 222t201 91q87 0 161 -37.5t162 -112.5q64 -57 117 -82.5t111 -25.5q76 0 130.5 64.5t54.5 161.5l97 -15q0 -129 -81 -223t-201 -94q-88 0 -160.5 35.5t-160.5 114.5q-64 53 -119 80t-111 27q-79 0 -131.5 -60.5t-52.5 -160.5z" />
<glyph unicode="&#xa1;" horiz-adv-x="456" d="M142 898v184h142v-184h-142zM153 -374v978h119v-978h-119z" />
<glyph unicode="&#xa2;" horiz-adv-x="1088" d="M124 520v42q0 219 104.5 366.5t297.5 169.5v220h120v-219q106 -12 193 -57t144 -115l5 -236h-102l-19 192q-48 54 -119.5 85.5t-162.5 31.5q-174 0 -257.5 -124.5t-83.5 -313.5v-42q0 -192 83 -316t259 -124q119 0 210 68t91 189h107l2 -6q4 -135 -99.5 -232.5 t-250.5 -115.5v-228h-120v228q-193 21 -297.5 169t-104.5 368z" />
<glyph unicode="&#xa3;" horiz-adv-x="1164" d="M68 642v102h203l-11 296q0 204 106 320.5t284 116.5q186 0 280 -103.5t91 -277.5l-3 -6h-111q0 148 -69 216.5t-188 68.5q-125 0 -198 -88t-73 -247l11 -296h451v-102h-448l7 -176q0 -107 -25.5 -204t-71.5 -161h654l10 205h106v-306h-941v101h10q70 15 104.5 129.5 t34.5 235.5l-7 176h-206z" />
<glyph unicode="&#xa5;" horiz-adv-x="1383" d="M59 1367v89h373v-89l-106 -9l367 -626l366 626l-106 9v89h374v-89l-132 -10l-395 -652h371v-87h-420v-206h420v-86h-420v-225l163 -13v-88h-446v88l163 13v225h-415v86h415v206h-415v87h369l-395 652z" />
<glyph unicode="&#xa7;" horiz-adv-x="1213" d="M90 -70l2 6l111 2q0 -173 113 -252t271 -79q163 0 256 70.5t93 181.5q0 106 -77.5 166t-292.5 121q-242 61 -359 149t-117 256q0 98 58.5 169t164.5 105q-90 49 -134 119.5t-44 175.5q0 161 128 259t342 98q222 0 346.5 -111.5t120.5 -313.5l-2 -6h-112q0 141 -94 235 t-259 94q-173 0 -262 -71t-89 -181q0 -114 74 -173t299 -122q247 -65 360 -148.5t113 -248.5q0 -98 -61 -168.5t-171 -103.5q94 -50 141 -120.5t47 -177.5q0 -166 -127 -261t-342 -95q-212 0 -357 102.5t-140 322.5zM209 553q0 -116 79 -175t323 -127q34 -10 65 -19t60 -18 q115 13 180 71.5t65 142.5q0 107 -85.5 170t-318.5 131q-40 9 -75.5 19.5t-66.5 22.5q-113 -14 -169.5 -73t-56.5 -145z" />
<glyph unicode="&#xa8;" horiz-adv-x="972" d="M152 1299v157h174v-157h-174zM622 1299v157h173v-157h-173z" />
<glyph unicode="&#xa9;" horiz-adv-x="1595" d="M92 729q0 315 207 531t503 216q295 0 502 -216t207 -531q0 -316 -207.5 -533t-501.5 -217q-296 0 -503 217t-207 533zM177 729q0 -279 182.5 -471.5t442.5 -192.5q257 0 440 192.5t183 471.5q0 277 -182.5 468.5t-440.5 191.5q-260 0 -442.5 -191.5t-182.5 -468.5z M458 669v119q0 172 91 279.5t242 107.5q148 0 231 -79t79 -228l-2 -6h-91q0 113 -55.5 168t-161.5 55q-110 0 -171.5 -83.5t-61.5 -212.5v-120q0 -132 61.5 -214.5t171.5 -82.5q107 0 161.5 54t54.5 170h91l2 -6q4 -150 -78.5 -229t-230.5 -79q-151 0 -242 106.5t-91 280.5z " />
<glyph unicode="&#xaa;" horiz-adv-x="875" d="M106 920q0 105 78.5 163t228.5 58h183v61q0 85 -41.5 131.5t-120.5 46.5q-92 0 -142 -37.5t-50 -108.5l-100 9l-2 6q-5 98 77.5 163t216.5 65q124 0 197.5 -71.5t73.5 -204.5v-314q0 -50 6 -94t20 -87h-111q-9 25 -14.5 52.5t-7.5 55.5q-37 -53 -98.5 -87.5t-144.5 -34.5 q-119 0 -184 61t-65 167zM214 924q0 -66 39 -101.5t121 -35.5q70 0 136 38.5t86 85.5v146h-182q-95 0 -147.5 -38.5t-52.5 -94.5z" />
<glyph unicode="&#xab;" horiz-adv-x="919" d="M83 132zM83 511v19l295 379h105l-276 -389l276 -388h-105zM392 511v19l295 379h105l-276 -389l276 -388h-105z" />
<glyph unicode="&#xac;" horiz-adv-x="1112" d="M121 670v106h811v-390h-119v284h-692z" />
<glyph unicode="&#xad;" horiz-adv-x="793" d="M154 570v101h478v-101h-478z" />
<glyph unicode="&#xae;" horiz-adv-x="1595" d="M92 729q0 315 207 531t503 216q295 0 502 -216t207 -531q0 -316 -207.5 -533t-501.5 -217q-296 0 -503 217t-207 533zM177 729q0 -279 182.5 -471.5t442.5 -192.5q257 0 440 192.5t183 471.5q0 277 -182.5 468.5t-440.5 191.5q-260 0 -442.5 -191.5t-182.5 -468.5z M541 316v850h258q147 0 226 -63t79 -185q0 -68 -36.5 -117t-104.5 -80q68 -25 98 -78t30 -128v-56q0 -40 4 -73t13 -54v-16h-102q-9 21 -11 61.5t-2 82.5v54q0 84 -38.5 121t-127.5 37h-188v-356h-98zM639 763h181q79 0 133 40.5t54 112.5q0 85 -46.5 122t-161.5 37h-160 v-312z" />
<glyph unicode="&#xaf;" horiz-adv-x="1005" d="M154 1359v97h670v-97h-670z" />
<glyph unicode="&#xb0;" horiz-adv-x="747" d="M124 1227q0 102 72 176t173 74q98 0 169.5 -74t71.5 -176q0 -104 -71 -175.5t-170 -71.5q-102 0 -173.5 71.5t-71.5 175.5zM213 1227q0 -67 45 -111.5t111 -44.5q65 0 108.5 44t43.5 112t-43.5 113.5t-108.5 45.5q-66 0 -111 -46t-45 -113z" />
<glyph unicode="&#xb1;" horiz-adv-x="1082" d="M75 728v101h414v438h111v-438h391v-101h-391v-439h-111v439h-414zM182 48v102h835v-102h-835z" />
<glyph unicode="&#xb4;" horiz-adv-x="574" d="M95 1212l206 266h147l3 -6l-249 -260h-107z" />
<glyph unicode="&#xb5;" horiz-adv-x="1297" d="M66 993v89h163h118v-633q0 -207 71 -288t192 -81q137 0 212 59.5t103 170.5v670l-163 13v89h283v-981l163 -13v-88h-266l-11 155q-48 -85 -126 -130.5t-187 -45.5q-88 0 -157 30t-114 96v-521h-118v1396z" />
<glyph unicode="&#xb6;" horiz-adv-x="1065" d="M78 988q0 207 129.5 337.5t362.5 130.5h225v-1355l163 -13v-88h-445v88l163 13v419h-106q-234 0 -363 129.5t-129 338.5zM795 1354v102h163v-89z" />
<glyph unicode="&#xb7;" horiz-adv-x="496" d="M159 624v180h154v-180h-154z" />
<glyph unicode="&#xb8;" horiz-adv-x="470" d="M103 -357q89 0 150.5 30.5t61.5 89.5q0 57 -41 79.5t-145 30.5l28 127h93l-11 -64q79 -9 127.5 -48.5t48.5 -122.5q0 -91 -79 -145.5t-226 -54.5z" />
<glyph unicode="&#xba;" horiz-adv-x="921" d="M121 1025v117q0 148 87.5 241.5t234.5 93.5q149 0 236.5 -93.5t87.5 -241.5v-117q0 -149 -87.5 -241.5t-234.5 -92.5q-149 0 -236.5 92.5t-87.5 241.5zM229 1025q0 -107 54.5 -173t161.5 -66q103 0 158.5 66.5t55.5 172.5v117q0 104 -56 171t-160 67t-159 -67t-55 -171 v-117z" />
<glyph unicode="&#xbb;" horiz-adv-x="916" d="M105 162l276 388l-276 394h105l295 -384v-19l-295 -379h-105zM105 162zM420 162l276 388l-276 394h105l295 -384v-19l-295 -379h-105z" />
<glyph unicode="&#xbf;" horiz-adv-x="862" d="M58 -20q0 134 65.5 238t188.5 219q61 52 75 98.5t14 142.5h120q-2 -131 -23.5 -183t-113.5 -136q-109 -113 -158 -188.5t-49 -189.5q0 -128 67.5 -198t194.5 -70q117 0 189 68.5t74 185.5h112l2 -6q2 -165 -105 -260t-272 -95q-180 0 -280.5 101t-100.5 273zM385 928v155 h139v-155h-139z" />
<glyph unicode="&#xc0;" horiz-adv-x="1485" d="M55 0v88l107 8l517 1360h113l512 -1360l109 -8v-88h-359v88l127 10l-120 326h-654l-121 -326l127 -10v-88h-358zM55 0zM444 1826l2 5h154l202 -266h-117zM447 531h575l-283 770h-6z" />
<glyph unicode="&#xc1;" horiz-adv-x="1485" d="M55 0v88l107 8l517 1360h113l512 -1360l109 -8v-88h-359v88l127 10l-120 326h-654l-121 -326l127 -10v-88h-358zM55 0zM447 531h575l-283 770h-6zM637 1550l206 266h147l3 -6l-249 -260h-107z" />
<glyph unicode="&#xc2;" horiz-adv-x="1485" d="M55 0v88l107 8l517 1360h113l512 -1360l109 -8v-88h-359v88l127 10l-120 326h-654l-121 -326l127 -10v-88h-358zM55 0zM447 531h575l-283 770h-6zM459 1593v21l226 221h98l230 -224v-18h-112l-167 168l-166 -168h-109z" />
<glyph unicode="&#xc3;" horiz-adv-x="1485" d="M55 0v88l107 8l517 1360h113l512 -1360l109 -8v-88h-359v88l127 10l-120 326h-654l-121 -326l127 -10v-88h-358zM55 0zM413 1620q0 86 53.5 144.5t136.5 58.5q65 0 147.5 -55t134.5 -55q46 0 79 36t33 91l80 -20q0 -88 -55 -146t-137 -58q-74 0 -151 55t-131 55 q-47 0 -79 -35t-32 -89zM447 531h575l-283 770h-6z" />
<glyph unicode="&#xc4;" horiz-adv-x="1485" d="M55 0v88l107 8l517 1360h113l512 -1360l109 -8v-88h-359v88l127 10l-120 326h-654l-121 -326l127 -10v-88h-358zM55 0zM406 1639v157h174v-157h-174zM447 531h575l-283 770h-6zM876 1639v157h173v-157h-173z" />
<glyph unicode="&#xc5;" horiz-adv-x="1485" d="M55 0v88l107 8l517 1360h113l512 -1360l109 -8v-88h-359v88l127 10l-120 326h-654l-121 -326l127 -10v-88h-358zM55 0zM447 531h575l-283 770h-6zM567 1740q0 69 49.5 117.5t119.5 48.5q68 0 117 -48.5t49 -117.5q0 -71 -48.5 -117t-117.5 -46q-71 0 -120 46t-49 117z M645 1740q0 -39 26.5 -65t64.5 -26q37 0 62 25.5t25 65.5t-25 66.5t-62 26.5q-38 0 -64.5 -26.5t-26.5 -66.5z" />
<glyph unicode="&#xc6;" horiz-adv-x="2058" d="M51 0v88l130 10l822 1358h864v-307h-107l-9 205h-578l23 -545h589v-102h-585l26 -606h587l9 205h106v-306h-980v88l158 12l-12 289h-597l-172 -293l106 -8v-88h-380zM564 502h526l-35 839l-6 1l-15 -44z" />
<glyph unicode="&#xc7;" horiz-adv-x="1349" d="M103 0zM103 718v19q0 325 177.5 532.5t464.5 207.5q162 0 289.5 -63.5t195.5 -157.5v-256h-93l-17 221q-58 69 -151 111.5t-215 42.5q-244 0 -388 -177.5t-144 -458.5v-21q0 -281 142.5 -459.5t374.5 -178.5q123 0 223.5 43t157.5 111l17 221h93v-256 q-68 -94 -198.5 -157t-292.5 -63q-280 0 -458 207.5t-178 531.5zM640 -360q89 0 150.5 30.5t61.5 89.5q0 57 -41 79.5t-145 30.5l28 127h93l-11 -64q79 -9 127.5 -48.5t48.5 -122.5q0 -91 -79 -145.5t-226 -54.5z" />
<glyph unicode="&#xc8;" horiz-adv-x="1286" d="M71 0v88l163 13v1253l-163 13v89h163h917v-320h-106l-9 218h-683v-547h597v-102h-597v-604h688l9 218h106v-319h-1085zM71 0zM344 1828l2 5h154l202 -266h-117z" />
<glyph unicode="&#xc9;" horiz-adv-x="1286" d="M71 0v88l163 13v1253l-163 13v89h163h917v-320h-106l-9 218h-683v-547h597v-102h-597v-604h688l9 218h106v-319h-1085zM71 0zM537 1552l206 266h147l3 -6l-249 -260h-107z" />
<glyph unicode="&#xca;" horiz-adv-x="1286" d="M71 0v88l163 13v1253l-163 13v89h163h917v-320h-106l-9 218h-683v-547h597v-102h-597v-604h688l9 218h106v-319h-1085zM71 0zM359 1595v21l226 221h98l230 -224v-18h-112l-167 168l-166 -168h-109z" />
<glyph unicode="&#xcb;" horiz-adv-x="1286" d="M71 0v88l163 13v1253l-163 13v89h163h917v-320h-106l-9 218h-683v-547h597v-102h-597v-604h688l9 218h106v-319h-1085zM71 0zM306 1641v157h174v-157h-174zM776 1641v157h173v-157h-173z" />
<glyph unicode="&#xcc;" horiz-adv-x="627" d="M32 0zM32 1827l2 5h154l202 -266h-117zM91 0v88l163 13v1253l-163 13v89h446v-89l-163 -13v-1253l163 -13v-88h-446z" />
<glyph unicode="&#xcd;" horiz-adv-x="627" d="M91 0v88l163 13v1253l-163 13v89h446v-89l-163 -13v-1253l163 -13v-88h-446zM91 0zM224 1551l206 266h147l3 -6l-249 -260h-107z" />
<glyph unicode="&#xce;" horiz-adv-x="627" d="M47 0zM47 1594v21l226 221h98l230 -224v-18h-112l-167 168l-166 -168h-109zM91 0v88l163 13v1253l-163 13v89h446v-89l-163 -13v-1253l163 -13v-88h-446z" />
<glyph unicode="&#xcf;" horiz-adv-x="627" d="M-6 1640v157h174v-157h-174zM0 0zM91 0v88l163 13v1253l-163 13v89h446v-89l-163 -13v-1253l163 -13v-88h-446zM464 1640v157h173v-157h-173z" />
<glyph unicode="&#xd0;" horiz-adv-x="1431" d="M101 0v88l163 13v588h-161v102h161v563l-163 13v89h586q267 0 441 -178t174 -457v-187q0 -280 -174 -457t-441 -177h-586zM383 101h304q216 0 355.5 151t139.5 382v190q0 228 -140 379t-355 151h-304v-563h332v-102h-332v-588z" />
<glyph unicode="&#xd1;" horiz-adv-x="1536" d="M71 0v88l163 13v1253l-163 13v89h163h120l827 -1250l6 1v1147l-163 13v89h282h163v-89l-163 -13v-1354h-119l-827 1252l-6 -1v-1150l163 -13v-88h-446zM71 0zM417 1622q0 86 53.5 144.5t136.5 58.5q65 0 147.5 -55t134.5 -55q46 0 79 36t33 91l80 -20q0 -88 -55 -146 t-137 -58q-74 0 -151 55t-131 55q-47 0 -79 -35t-32 -89z" />
<glyph unicode="&#xd2;" horiz-adv-x="1468" d="M106 0zM106 718v19q0 327 172 533.5t448 206.5q280 0 455.5 -206.5t175.5 -533.5v-19q0 -328 -175 -533.5t-455 -205.5q-276 0 -448.5 206t-172.5 533zM226 718q0 -285 135 -460t366 -175q237 0 373.5 174.5t136.5 460.5v21q0 283 -138 458t-373 175q-231 0 -365.5 -175 t-134.5 -458v-21zM439 1838l2 5h154l202 -266h-117z" />
<glyph unicode="&#xd3;" horiz-adv-x="1468" d="M106 0zM106 718v19q0 327 172 533.5t448 206.5q280 0 455.5 -206.5t175.5 -533.5v-19q0 -328 -175 -533.5t-455 -205.5q-276 0 -448.5 206t-172.5 533zM226 718q0 -285 135 -460t366 -175q237 0 373.5 174.5t136.5 460.5v21q0 283 -138 458t-373 175q-231 0 -365.5 -175 t-134.5 -458v-21zM632 1562l206 266h147l3 -6l-249 -260h-107z" />
<glyph unicode="&#xd4;" horiz-adv-x="1468" d="M106 0zM106 718v19q0 327 172 533.5t448 206.5q280 0 455.5 -206.5t175.5 -533.5v-19q0 -328 -175 -533.5t-455 -205.5q-276 0 -448.5 206t-172.5 533zM226 718q0 -285 135 -460t366 -175q237 0 373.5 174.5t136.5 460.5v21q0 283 -138 458t-373 175q-231 0 -365.5 -175 t-134.5 -458v-21zM454 1605v21l226 221h98l230 -224v-18h-112l-167 168l-166 -168h-109z" />
<glyph unicode="&#xd5;" horiz-adv-x="1468" d="M106 0zM106 718v19q0 327 172 533.5t448 206.5q280 0 455.5 -206.5t175.5 -533.5v-19q0 -328 -175 -533.5t-455 -205.5q-276 0 -448.5 206t-172.5 533zM226 718q0 -285 135 -460t366 -175q237 0 373.5 174.5t136.5 460.5v21q0 283 -138 458t-373 175q-231 0 -365.5 -175 t-134.5 -458v-21zM408 1632q0 86 53.5 144.5t136.5 58.5q65 0 147.5 -55t134.5 -55q46 0 79 36t33 91l80 -20q0 -88 -55 -146t-137 -58q-74 0 -151 55t-131 55q-47 0 -79 -35t-32 -89z" />
<glyph unicode="&#xd6;" horiz-adv-x="1468" d="M106 0zM106 718v19q0 327 172 533.5t448 206.5q280 0 455.5 -206.5t175.5 -533.5v-19q0 -328 -175 -533.5t-455 -205.5q-276 0 -448.5 206t-172.5 533zM226 718q0 -285 135 -460t366 -175q237 0 373.5 174.5t136.5 460.5v21q0 283 -138 458t-373 175q-231 0 -365.5 -175 t-134.5 -458v-21zM401 1651v157h174v-157h-174zM871 1651v157h173v-157h-173z" />
<glyph unicode="&#xd8;" horiz-adv-x="1408" d="M100 718v19q0 327 172 533.5t448 206.5q96 0 183.5 -27t161.5 -78l82 133h104l-117 -191q103 -100 160 -249t57 -328v-19q0 -328 -175 -533.5t-455 -205.5q-98 0 -185 27.5t-158 80.5l-105 -171h-104l141 229q-101 99 -155.5 246.5t-54.5 326.5zM220 718 q0 -148 38 -269.5t109 -200.5l6 -1l635 1033q-60 44 -132.5 68t-155.5 24q-231 0 -365.5 -175t-134.5 -458v-21zM434 178q59 -47 131 -71t156 -24q237 0 373.5 174.5t136.5 460.5v21q0 148 -40.5 270.5t-113.5 202.5l-6 1z" />
<glyph unicode="&#xd9;" horiz-adv-x="1487" d="M60 0zM60 1367v89h163h119h163v-89l-163 -13v-885q0 -186 110 -287.5t287 -101.5q180 0 293 101t113 288v885l-163 13v89h445v-89l-163 -13v-885q0 -238 -145.5 -364t-379.5 -126q-230 0 -373 126.5t-143 363.5v885zM449 1821l2 5h154l202 -266h-117z" />
<glyph unicode="&#xda;" horiz-adv-x="1487" d="M60 0zM60 1367v89h163h119h163v-89l-163 -13v-885q0 -186 110 -287.5t287 -101.5q180 0 293 101t113 288v885l-163 13v89h445v-89l-163 -13v-885q0 -238 -145.5 -364t-379.5 -126q-230 0 -373 126.5t-143 363.5v885zM642 1545l206 266h147l3 -6l-249 -260h-107z" />
<glyph unicode="&#xdb;" horiz-adv-x="1487" d="M60 0zM60 1367v89h163h119h163v-89l-163 -13v-885q0 -186 110 -287.5t287 -101.5q180 0 293 101t113 288v885l-163 13v89h445v-89l-163 -13v-885q0 -238 -145.5 -364t-379.5 -126q-230 0 -373 126.5t-143 363.5v885zM464 1588v21l226 221h98l230 -224v-18h-112l-167 168 l-166 -168h-109z" />
<glyph unicode="&#xdc;" horiz-adv-x="1487" d="M60 0zM60 1367v89h163h119h163v-89l-163 -13v-885q0 -186 110 -287.5t287 -101.5q180 0 293 101t113 288v885l-163 13v89h445v-89l-163 -13v-885q0 -238 -145.5 -364t-379.5 -126q-230 0 -373 126.5t-143 363.5v885zM411 1634v157h174v-157h-174zM881 1634v157h173v-157 h-173z" />
<glyph unicode="&#xdd;" horiz-adv-x="1423" d="M55 0zM55 1367v89h400v-89l-140 -10l394 -710l396 710l-140 10v89h401v-89l-124 -10l-474 -825v-431l163 -13v-88h-446v88l163 13v438l-470 818zM616 1545l206 266h147l3 -6l-249 -260h-107z" />
<glyph unicode="&#xde;" horiz-adv-x="1257" d="M70 0v88l163 13v1253l-163 13v89h282h163v-89l-163 -13v-202h324q221 0 345 -115t124 -299q0 -185 -123.5 -299.5t-345.5 -114.5h-324v-223l163 -13v-88h-445zM352 425h324q173 0 261.5 92t88.5 219q0 130 -88 222.5t-262 92.5h-324v-626z" />
<glyph unicode="&#xdf;" horiz-adv-x="1263" d="M55 0v88l163 13v981q0 204 102 317t273 113q140 0 232 -79.5t92 -222.5q0 -109 -61.5 -215.5t-61.5 -184.5q0 -86 184 -228t184 -287q0 -153 -109.5 -234.5t-266.5 -81.5q-86 0 -176.5 23.5t-129.5 56.5l34 101q40 -31 114.5 -55.5t143.5 -24.5q125 0 197.5 60t72.5 155 q0 99 -184 240.5t-184 276.5q0 93 63 201.5t63 190.5q0 92 -59.5 149.5t-137.5 57.5q-121 0 -193.5 -85.5t-72.5 -243.5v-1082h-282z" />
<glyph unicode="&#xe0;" d="M104 0zM104 283q0 150 129 238t350 88h239v143q0 116 -74.5 182t-208.5 66q-90 0 -164.5 -24.5t-124.5 -66.5l-10 -145h-99l1 208q75 58 179.5 94t222.5 36q179 0 288 -91t109 -261v-532q0 -33 1.5 -63.5t6.5 -59.5l108 -7v-88h-213q-12 55 -17 95t-5 81 q-60 -85 -160 -141t-225 -56q-159 0 -246 82t-87 222zM223 279q0 -87 60.5 -140.5t166.5 -53.5q130 0 229 60t143 155v217h-241q-163 0 -260.5 -67.5t-97.5 -170.5zM254 1505l2 5h154l202 -266h-117z" />
<glyph unicode="&#xe1;" d="M104 0zM104 283q0 150 129 238t350 88h239v143q0 116 -74.5 182t-208.5 66q-90 0 -164.5 -24.5t-124.5 -66.5l-10 -145h-99l1 208q75 58 179.5 94t222.5 36q179 0 288 -91t109 -261v-532q0 -33 1.5 -63.5t6.5 -59.5l108 -7v-88h-213q-12 55 -17 95t-5 81 q-60 -85 -160 -141t-225 -56q-159 0 -246 82t-87 222zM223 279q0 -87 60.5 -140.5t166.5 -53.5q130 0 229 60t143 155v217h-241q-163 0 -260.5 -67.5t-97.5 -170.5zM447 1229l206 266h147l3 -6l-249 -260h-107z" />
<glyph unicode="&#xe2;" d="M104 0zM104 283q0 150 129 238t350 88h239v143q0 116 -74.5 182t-208.5 66q-90 0 -164.5 -24.5t-124.5 -66.5l-10 -145h-99l1 208q75 58 179.5 94t222.5 36q179 0 288 -91t109 -261v-532q0 -33 1.5 -63.5t6.5 -59.5l108 -7v-88h-213q-12 55 -17 95t-5 81 q-60 -85 -160 -141t-225 -56q-159 0 -246 82t-87 222zM223 279q0 -87 60.5 -140.5t166.5 -53.5q130 0 229 60t143 155v217h-241q-163 0 -260.5 -67.5t-97.5 -170.5zM269 1272v21l226 221h98l230 -224v-18h-112l-167 168l-166 -168h-109z" />
<glyph unicode="&#xe3;" d="M104 0zM104 283q0 150 129 238t350 88h239v143q0 116 -74.5 182t-208.5 66q-90 0 -164.5 -24.5t-124.5 -66.5l-10 -145h-99l1 208q75 58 179.5 94t222.5 36q179 0 288 -91t109 -261v-532q0 -33 1.5 -63.5t6.5 -59.5l108 -7v-88h-213q-12 55 -17 95t-5 81 q-60 -85 -160 -141t-225 -56q-159 0 -246 82t-87 222zM223 279q0 -87 60.5 -140.5t166.5 -53.5q130 0 229 60t143 155v217h-241q-163 0 -260.5 -67.5t-97.5 -170.5zM223 1299q0 86 53.5 144.5t136.5 58.5q65 0 147.5 -55t134.5 -55q46 0 79 36t33 91l80 -20q0 -88 -55 -146 t-137 -58q-74 0 -151 55t-131 55q-47 0 -79 -35t-32 -89z" />
<glyph unicode="&#xe4;" d="M104 0zM104 283q0 150 129 238t350 88h239v143q0 116 -74.5 182t-208.5 66q-90 0 -164.5 -24.5t-124.5 -66.5l-10 -145h-99l1 208q75 58 179.5 94t222.5 36q179 0 288 -91t109 -261v-532q0 -33 1.5 -63.5t6.5 -59.5l108 -7v-88h-213q-12 55 -17 95t-5 81 q-60 -85 -160 -141t-225 -56q-159 0 -246 82t-87 222zM216 1318v157h174v-157h-174zM223 279q0 -87 60.5 -140.5t166.5 -53.5q130 0 229 60t143 155v217h-241q-163 0 -260.5 -67.5t-97.5 -170.5zM686 1318v157h173v-157h-173z" />
<glyph unicode="&#xe5;" d="M104 0zM104 283q0 150 129 238t350 88h239v143q0 116 -74.5 182t-208.5 66q-90 0 -164.5 -24.5t-124.5 -66.5l-10 -145h-99l1 208q75 58 179.5 94t222.5 36q179 0 288 -91t109 -261v-532q0 -33 1.5 -63.5t6.5 -59.5l108 -7v-88h-213q-12 55 -17 95t-5 81 q-60 -85 -160 -141t-225 -56q-159 0 -246 82t-87 222zM223 279q0 -87 60.5 -140.5t166.5 -53.5q130 0 229 60t143 155v217h-241q-163 0 -260.5 -67.5t-97.5 -170.5zM377 1419q0 69 49.5 117.5t119.5 48.5q68 0 117 -48.5t49 -117.5q0 -71 -48.5 -117t-117.5 -46 q-71 0 -120 46t-49 117zM455 1419q0 -39 26.5 -65t64.5 -26q37 0 62 25.5t25 65.5t-25 66.5t-62 26.5q-38 0 -64.5 -26.5t-26.5 -66.5z" />
<glyph unicode="&#xe6;" horiz-adv-x="1786" d="M97 293q0 158 113 248.5t325 90.5h263v88q0 134 -63.5 207t-187.5 73q-135 0 -213 -67t-78 -168l-110 12l-2 6q-5 138 106 228.5t297 90.5q125 0 213 -54t129 -157q61 99 156 155t210 56q200 0 311.5 -124t111.5 -340v-100h-755v-29q0 -191 90 -310t272 -119 q103 0 181 32.5t142 86.5l48 -87q-60 -55 -148.5 -94t-222.5 -39q-138 0 -241 55.5t-163 157.5q-49 -87 -159.5 -150t-269.5 -63q-170 0 -262.5 84.5t-92.5 229.5zM217 289q0 -97 64.5 -153.5t187.5 -56.5q102 0 197.5 53.5t131.5 115.5v288h-261q-155 0 -237.5 -71 t-82.5 -176zM931 641l2 -5h625v31q0 146 -77 239.5t-226 93.5q-138 0 -224.5 -101.5t-99.5 -257.5z" />
<glyph unicode="&#xe7;" horiz-adv-x="1094" d="M97 0zM97 520v42q0 236 121 388t340 152q125 0 229 -47t169 -128l5 -236h-102l-19 192q-48 54 -119.5 85.5t-162.5 31.5q-174 0 -257.5 -124.5t-83.5 -313.5v-42q0 -192 83 -316t259 -124q119 0 210 68t91 189h106l2 -6q5 -150 -119.5 -251t-289.5 -101 q-220 0 -341 151.5t-121 389.5zM443 -366q89 0 150.5 30.5t61.5 89.5q0 57 -41 79.5t-145 30.5l28 127h93l-11 -64q79 -9 127.5 -48.5t48.5 -122.5q0 -91 -79 -145.5t-226 -54.5z" />
<glyph unicode="&#xe8;" horiz-adv-x="1102" d="M102 0zM102 509v55q0 232 133.5 385t322.5 153q199 0 313 -126t114 -336v-102h-764v-29q0 -182 97.5 -305.5t255.5 -123.5q111 0 190 31t135 89l51 -82q-61 -64 -154 -101.5t-222 -37.5q-204 0 -338 149.5t-134 380.5zM230 644l2 -5h634v30q0 141 -83 236t-225 95 q-132 0 -222.5 -101.5t-105.5 -254.5zM272 1505l2 5h154l202 -266h-117z" />
<glyph unicode="&#xe9;" horiz-adv-x="1102" d="M102 0zM102 509v55q0 232 133.5 385t322.5 153q199 0 313 -126t114 -336v-102h-764v-29q0 -182 97.5 -305.5t255.5 -123.5q111 0 190 31t135 89l51 -82q-61 -64 -154 -101.5t-222 -37.5q-204 0 -338 149.5t-134 380.5zM230 644l2 -5h634v30q0 141 -83 236t-225 95 q-132 0 -222.5 -101.5t-105.5 -254.5zM465 1229l206 266h147l3 -6l-249 -260h-107z" />
<glyph unicode="&#xea;" horiz-adv-x="1102" d="M102 0zM102 509v55q0 232 133.5 385t322.5 153q199 0 313 -126t114 -336v-102h-764v-29q0 -182 97.5 -305.5t255.5 -123.5q111 0 190 31t135 89l51 -82q-61 -64 -154 -101.5t-222 -37.5q-204 0 -338 149.5t-134 380.5zM230 644l2 -5h634v30q0 141 -83 236t-225 95 q-132 0 -222.5 -101.5t-105.5 -254.5zM287 1272v21l226 221h98l230 -224v-18h-112l-167 168l-166 -168h-109z" />
<glyph unicode="&#xeb;" horiz-adv-x="1102" d="M102 0zM102 509v55q0 232 133.5 385t322.5 153q199 0 313 -126t114 -336v-102h-764v-29q0 -182 97.5 -305.5t255.5 -123.5q111 0 190 31t135 89l51 -82q-61 -64 -154 -101.5t-222 -37.5q-204 0 -338 149.5t-134 380.5zM230 644l2 -5h634v30q0 141 -83 236t-225 95 q-132 0 -222.5 -101.5t-105.5 -254.5zM234 1318v157h174v-157h-174zM704 1318v157h173v-157h-173z" />
<glyph unicode="&#xec;" horiz-adv-x="637" d="M24 0zM24 1493l2 5h154l202 -266h-117zM90 0v88l163 13v879l-163 13v89h282v-981l163 -13v-88h-445z" />
<glyph unicode="&#xed;" horiz-adv-x="637" d="M90 0v88l163 13v879l-163 13v89h282v-981l163 -13v-88h-445zM90 0zM216 1217l206 266h147l3 -6l-249 -260h-107z" />
<glyph unicode="&#xee;" horiz-adv-x="637" d="M39 0zM39 1260v21l226 221h98l230 -224v-18h-112l-167 168l-166 -168h-109zM90 0v88l163 13v879l-163 13v89h282v-981l163 -13v-88h-445z" />
<glyph unicode="&#xef;" horiz-adv-x="637" d="M-14 1306v157h174v-157h-174zM0 0zM90 0v88l163 13v879l-163 13v89h282v-981l163 -13v-88h-445zM456 1306v157h173v-157h-173z" />
<glyph unicode="&#xf0;" horiz-adv-x="1179" d="M78 455q0 235 130 372.5t347 137.5q104 0 193.5 -40t143.5 -107l4 5q-18 131 -68 234t-126 182l-308 -176l-51 74l288 164q-45 33 -94.5 61t-103.5 51l38 104q77 -30 144 -68.5t124 -85.5l258 148l51 -74l-241 -138q111 -121 168.5 -289.5t57.5 -386.5v-88 q0 -245 -137 -400.5t-344 -155.5t-340.5 137t-133.5 339zM198 455q0 -149 97 -261t261 -112q159 0 258.5 127.5t99.5 325.5v90q0 9 -0.5 27t-0.5 27q-37 77 -127.5 129.5t-230.5 52.5q-172 0 -264.5 -115t-92.5 -291z" />
<glyph unicode="&#xf1;" horiz-adv-x="1319" d="M75 0v88l163 13v879l-163 13v89h269l11 -189q52 100 140.5 154.5t209.5 54.5q176 0 268 -107.5t92 -335.5v-558l163 -13v-88h-446v88l163 13v557q0 186 -69.5 263t-197.5 77q-126 0 -205.5 -66.5t-114.5 -176.5v-654l163 -13v-88h-446zM75 0zM331 1298q0 86 53.5 144.5 t136.5 58.5q65 0 147.5 -55t134.5 -55q46 0 79 36t33 91l80 -20q0 -88 -55 -146t-137 -58q-74 0 -151 55t-131 55q-47 0 -79 -35t-32 -89z" />
<glyph unicode="&#xf2;" horiz-adv-x="1152" d="M97 0zM97 524v33q0 239 131 392t347 153q217 0 348 -153t131 -392v-33q0 -240 -130.5 -392.5t-346.5 -152.5q-218 0 -349 152.5t-131 392.5zM217 524q0 -188 95 -316t265 -128q167 0 262 128t95 316v33q0 185 -95.5 314t-263.5 129t-263 -129t-95 -314v-33zM288 1504l2 5 h154l202 -266h-117z" />
<glyph unicode="&#xf3;" horiz-adv-x="1152" d="M97 0zM97 524v33q0 239 131 392t347 153q217 0 348 -153t131 -392v-33q0 -240 -130.5 -392.5t-346.5 -152.5q-218 0 -349 152.5t-131 392.5zM217 524q0 -188 95 -316t265 -128q167 0 262 128t95 316v33q0 185 -95.5 314t-263.5 129t-263 -129t-95 -314v-33zM481 1228 l206 266h147l3 -6l-249 -260h-107z" />
<glyph unicode="&#xf4;" horiz-adv-x="1152" d="M97 0zM97 524v33q0 239 131 392t347 153q217 0 348 -153t131 -392v-33q0 -240 -130.5 -392.5t-346.5 -152.5q-218 0 -349 152.5t-131 392.5zM217 524q0 -188 95 -316t265 -128q167 0 262 128t95 316v33q0 185 -95.5 314t-263.5 129t-263 -129t-95 -314v-33zM303 1271v21 l226 221h98l230 -224v-18h-112l-167 168l-166 -168h-109z" />
<glyph unicode="&#xf5;" horiz-adv-x="1152" d="M97 0zM97 524v33q0 239 131 392t347 153q217 0 348 -153t131 -392v-33q0 -240 -130.5 -392.5t-346.5 -152.5q-218 0 -349 152.5t-131 392.5zM217 524q0 -188 95 -316t265 -128q167 0 262 128t95 316v33q0 185 -95.5 314t-263.5 129t-263 -129t-95 -314v-33zM257 1298 q0 86 53.5 144.5t136.5 58.5q65 0 147.5 -55t134.5 -55q46 0 79 36t33 91l80 -20q0 -88 -55 -146t-137 -58q-74 0 -151 55t-131 55q-47 0 -79 -35t-32 -89z" />
<glyph unicode="&#xf6;" horiz-adv-x="1152" d="M97 0zM97 524v33q0 239 131 392t347 153q217 0 348 -153t131 -392v-33q0 -240 -130.5 -392.5t-346.5 -152.5q-218 0 -349 152.5t-131 392.5zM217 524q0 -188 95 -316t265 -128q167 0 262 128t95 316v33q0 185 -95.5 314t-263.5 129t-263 -129t-95 -314v-33zM250 1317v157 h174v-157h-174zM720 1317v157h173v-157h-173z" />
<glyph unicode="&#xf7;" horiz-adv-x="1148" d="M74 644v116h998v-116h-998zM508 212v160h142v-160h-142zM508 1010v160h142v-160h-142z" />
<glyph unicode="&#xf8;" horiz-adv-x="1152" d="M97 524v33q0 239 131 392t347 153q62 0 119 -14.5t108 -40.5l86 167h93l-110 -214q87 -73 135 -188t48 -255v-33q0 -240 -130.5 -392.5t-346.5 -152.5q-58 0 -110 11t-98 34l-84 -164h-93l106 207q-96 71 -148.5 190t-52.5 267zM217 524q0 -110 33.5 -202.5t96.5 -147.5 h6l399 776q-38 24 -82.5 37t-94.5 13q-168 0 -263 -129t-95 -314v-33zM417 118q34 -19 74 -28.5t86 -9.5q167 0 262 128t95 316v33q0 100 -30 187.5t-85 144.5h-5z" />
<glyph unicode="&#xf9;" horiz-adv-x="1232" d="M46 0zM46 993v89h134h119v-629q0 -198 67.5 -284t191.5 -86q136 0 216.5 60t113.5 166v671l-154 13v89h154h120v-981l145 -13v-88h-250l-11 178q-51 -95 -139.5 -147t-208.5 -52q-171 0 -267.5 116t-96.5 360v525zM269 1493l2 5h154l202 -266h-117z" />
<glyph unicode="&#xfa;" horiz-adv-x="1232" d="M46 0zM46 993v89h134h119v-629q0 -198 67.5 -284t191.5 -86q136 0 216.5 60t113.5 166v671l-154 13v89h154h120v-981l145 -13v-88h-250l-11 178q-51 -95 -139.5 -147t-208.5 -52q-171 0 -267.5 116t-96.5 360v525zM462 1217l206 266h147l3 -6l-249 -260h-107z" />
<glyph unicode="&#xfb;" horiz-adv-x="1232" d="M46 0zM46 993v89h134h119v-629q0 -198 67.5 -284t191.5 -86q136 0 216.5 60t113.5 166v671l-154 13v89h154h120v-981l145 -13v-88h-250l-11 178q-51 -95 -139.5 -147t-208.5 -52q-171 0 -267.5 116t-96.5 360v525zM284 1260v21l226 221h98l230 -224v-18h-112l-167 168 l-166 -168h-109z" />
<glyph unicode="&#xfc;" horiz-adv-x="1232" d="M46 0zM46 993v89h134h119v-629q0 -198 67.5 -284t191.5 -86q136 0 216.5 60t113.5 166v671l-154 13v89h154h120v-981l145 -13v-88h-250l-11 178q-51 -95 -139.5 -147t-208.5 -52q-171 0 -267.5 116t-96.5 360v525zM231 1306v157h174v-157h-174zM701 1306v157h173v-157 h-173z" />
<glyph unicode="&#xfd;" horiz-adv-x="1174" d="M46 0zM46 993v89h372v-89l-129 -10l264 -690l38 -130h6l296 820l-132 10v89h374v-89l-110 -9l-437 -1157q-42 -110 -109 -187t-196 -77q-21 0 -51 4.5t-44 9.5l14 100q12 -2 38.5 -4.5t37.5 -2.5q79 0 125 55t81 143l56 145l-384 971zM498 1217l206 266h147l3 -6 l-249 -260h-107z" />
<glyph unicode="&#xfe;" horiz-adv-x="1191" d="M47 -327l163 13v1772l-163 13v89h282v-640q54 87 138.5 134.5t198.5 47.5q195 0 305 -155.5t110 -414.5v-21q0 -243 -110 -387.5t-303 -144.5q-114 0 -199.5 43.5t-139.5 123.5v-460l163 -13v-89h-445v89zM329 271q41 -89 118.5 -140t193.5 -51q157 0 238.5 118t81.5 313 v21q0 206 -82 336t-240 130q-121 0 -196.5 -57.5t-113.5 -149.5v-520z" />
<glyph unicode="&#xff;" horiz-adv-x="1174" d="M46 0zM46 993v89h372v-89l-129 -10l264 -690l38 -130h6l296 820l-132 10v89h374v-89l-110 -9l-437 -1157q-42 -110 -109 -187t-196 -77q-21 0 -51 4.5t-44 9.5l14 100q12 -2 38.5 -4.5t37.5 -2.5q79 0 125 55t81 143l56 145l-384 971zM267 1306v157h174v-157h-174z M737 1306v157h173v-157h-173z" />
<glyph unicode="&#x131;" horiz-adv-x="637" d="M90 0v88l163 13v879l-163 13v89h282v-981l163 -13v-88h-445z" />
<glyph unicode="&#x152;" horiz-adv-x="1971" d="M114 576v304q0 265 148.5 431t387.5 166q75 0 151.5 -6t161.5 -15h889v-320h-106l-9 218h-683v-547h597v-102h-597v-604h688l9 218h106v-319h-894q-99 -10 -168.5 -15.5t-142.5 -5.5q-240 0 -389 166t-149 431zM234 576q0 -228 113.5 -361.5t304.5 -133.5q29 0 59.5 0.5 t60.5 2.5v4l163 13v1253l-163 13v5q-30 1 -61 2t-61 1q-192 0 -304 -132t-112 -361v-306z" />
<glyph unicode="&#x153;" horiz-adv-x="1916" d="M104 524v33q0 239 130.5 392t346.5 153q146 0 255.5 -72.5t168.5 -199.5q59 125 166 198.5t234 73.5q199 0 313 -126t114 -336v-102h-764v-29q0 -183 97 -306t255 -123q112 0 191 31t135 89l51 -82q-61 -64 -154.5 -101.5t-222.5 -37.5q-138 0 -248 72t-169 197 q-58 -126 -167 -197.5t-253 -71.5q-217 0 -348 152.5t-131 392.5zM223 524q0 -188 95 -316t265 -128q167 0 262.5 128t95.5 316v33q0 185 -96 314t-264 129t-263 -129t-95 -314v-33zM1077 644l2 -5h634v30q0 141 -83 236t-225 95q-132 0 -222.5 -101.5t-105.5 -254.5z" />
<glyph unicode="&#x178;" horiz-adv-x="1423" d="M55 0zM55 1367v89h400v-89l-140 -10l394 -710l396 710l-140 10v89h401v-89l-124 -10l-474 -825v-431l163 -13v-88h-446v88l163 13v438l-470 818zM385 1634v157h174v-157h-174zM855 1634v157h173v-157h-173z" />
<glyph unicode="&#x192;" horiz-adv-x="774" d="M-3 -418l13 99q15 -6 46 -11t53 -5q87 0 135 65t48 181v1073h-179v98h179v158q0 163 82 252t229 89q32 0 66 -5t69 -14l-15 -99q-24 6 -49 9.5t-59 3.5q-98 0 -150.5 -62t-52.5 -174v-158h245v-98h-245v-1073q0 -167 -80 -257.5t-223 -90.5q-31 0 -57.5 5t-54.5 14z" />
<glyph unicode="&#x2c6;" horiz-adv-x="801" d="M104 1252v21l226 221h98l230 -224v-18h-112l-167 168l-166 -168h-109z" />
<glyph unicode="&#x2c7;" horiz-adv-x="779" d="M90 1477v17h114l166 -169l167 169h115v-17l-233 -225h-98z" />
<glyph unicode="&#x2d8;" horiz-adv-x="827" d="M125 1450l2 6h94q0 -77 45 -124t142 -47q94 0 140 48t46 123h94l2 -6q4 -111 -73 -181.5t-209 -70.5q-134 0 -211 70t-72 182z" />
<glyph unicode="&#x2d9;" horiz-adv-x="499" d="M152 1288v168h151v-168h-151z" />
<glyph unicode="&#x2da;" horiz-adv-x="652" d="M138 1324q0 69 49.5 117.5t119.5 48.5q68 0 117 -48.5t49 -117.5q0 -71 -48.5 -117t-117.5 -46q-71 0 -120 46t-49 117zM216 1324q0 -39 26.5 -65t64.5 -26q37 0 62 25.5t25 65.5t-25 66.5t-62 26.5q-38 0 -64.5 -26.5t-26.5 -66.5z" />
<glyph unicode="&#x2db;" horiz-adv-x="440" d="M54 -223q0 70 51 138.5t143 121.5l61 -37q-72 -60 -110 -108t-38 -104q0 -31 19 -58t70 -27q32 0 56.5 9t48.5 23l24 -83q-29 -19 -65.5 -31.5t-86.5 -12.5q-76 0 -124.5 44.5t-48.5 124.5z" />
<glyph unicode="&#x2dc;" horiz-adv-x="934" d="M127 1281q0 86 53.5 144.5t136.5 58.5q65 0 147.5 -55t134.5 -55q46 0 79 36t33 91l80 -20q0 -88 -55 -146t-137 -58q-74 0 -151 55t-131 55q-47 0 -79 -35t-32 -89z" />
<glyph unicode="&#x2dd;" horiz-adv-x="892" d="M108 1257l213 261h133l3 -6l-244 -260h-102zM352 1258l265 260h144l2 -6l-295 -260h-114z" />
<glyph unicode="&#x3c0;" horiz-adv-x="1273" d="M75 979v103h1033v-103h-183v-705q0 -106 38 -148.5t107 -42.5q26 0 48.5 4t51.5 13l25 -89q-35 -18 -70.5 -25t-76.5 -7q-123 0 -183 70.5t-60 229.5v700h-463v-979h-120v979h-147z" />
<glyph unicode="&#x400;" horiz-adv-x="1286" d="M71 0v88l163 13v1253l-163 13v89h163h917v-320h-106l-9 218h-683v-547h597v-102h-597v-604h688l9 218h106v-319h-1085zM71 0zM344 1828l2 5h154l202 -266h-117z" />
<glyph unicode="&#x401;" horiz-adv-x="1286" d="M71 0v88l163 13v1253l-163 13v89h163h917v-320h-106l-9 218h-683v-547h597v-102h-597v-604h688l9 218h106v-319h-1085zM71 0zM306 1641v157h174v-157h-174zM776 1641v157h173v-157h-173z" />
<glyph unicode="&#x402;" horiz-adv-x="1558" d="M79 1149v307h1140v-307h-107l-9 205h-465v-540q90 31 177 51t154 20q232 0 365.5 -116t133.5 -346q0 -185 -122 -308.5t-350 -120.5l-5 2l-1 90q177 0 267.5 95t90.5 242q-1 179 -101 267.5t-278 88.5q-76 0 -161.5 -19.5t-169.5 -50.5v-608l154 -13v-88h-437v88l163 13 v1253h-324l-8 -205h-107z" />
<glyph unicode="&#x403;" horiz-adv-x="1209" d="M77 0v88l163 13v1253l-163 13v89h1039v-307h-107l-9 205h-641v-1253l163 -13v-88h-445zM77 0zM521 1552l206 266h147l3 -6l-249 -260h-107z" />
<glyph unicode="&#x404;" horiz-adv-x="1274" d="M88 719v19q0 325 177.5 532.5t464.5 207.5q162 0 289.5 -63.5t195.5 -157.5v-256h-93l-17 221q-58 69 -151 111.5t-215 42.5q-234 0 -375.5 -162.5t-150.5 -420.5l2 -5h612v-101h-613l-2 -5q5 -265 145.5 -433t366.5 -168q123 0 223.5 43t157.5 111l17 221h93v-256 q-68 -94 -198.5 -157t-292.5 -63q-280 0 -458 207.5t-178 531.5z" />
<glyph unicode="&#x405;" horiz-adv-x="1220" d="M109 191v255h98l17 -213q66 -75 169 -114t224 -39q172 0 278.5 76t106.5 201q0 119 -89 194.5t-310 133.5q-239 60 -362 156t-123 259q0 167 140 272t361 105q159 0 283.5 -55t196.5 -149v-249h-98l-17 206q-54 68 -147 106.5t-218 38.5q-180 0 -280.5 -78t-100.5 -194 q0 -110 90.5 -183.5t313.5 -129.5q235 -60 357.5 -162t122.5 -269q0 -174 -142 -277t-363 -103q-156 0 -289.5 55t-218.5 157z" />
<glyph unicode="&#x406;" horiz-adv-x="627" d="M91 0v88l163 13v1253l-163 13v89h446v-89l-163 -13v-1253l163 -13v-88h-446zM91 0z" />
<glyph unicode="&#x407;" horiz-adv-x="627" d="M-6 1640v157h174v-157h-174zM0 0zM91 0v88l163 13v1253l-163 13v89h446v-89l-163 -13v-1253l163 -13v-88h-446zM464 1640v157h173v-157h-173z" />
<glyph unicode="&#x408;" horiz-adv-x="1158" d="M49 0zM54 395l2 6h112q0 -158 84 -239.5t240 -81.5q133 0 219 90.5t86 242.5v941l-163 13v89h283h163v-89l-163 -13v-941q0 -199 -118.5 -316.5t-306.5 -117.5q-205 0 -324 106t-114 310z" />
<glyph unicode="&#x409;" horiz-adv-x="2197" d="M60 0v101h37q175 0 249 148t91 548l19 557l-159 13v89h961h163v-89l-163 -13v-508h364q230 0 355.5 -117t125.5 -306t-126 -306t-355 -117h-484v1354h-562l-20 -557q-17 -437 -112.5 -617t-342.5 -180h-41zM1258 101h364q180 0 271 93t91 231q0 133 -91 226.5t-271 93.5 h-364v-644z" />
<glyph unicode="&#x40a;" horiz-adv-x="2247" d="M77 0v88l163 13v1253l-163 13v89h445v-89l-163 -13v-569h829v569l-163 13v89h163h119h163v-89l-163 -13v-530h365q230 0 355 -113t125 -297q0 -185 -126 -299.5t-354 -114.5h-647v88l163 13v583h-829v-583l163 -13v-88h-445zM1307 106h365q180 0 270.5 88t90.5 222 q0 129 -90.5 217.5t-270.5 88.5h-365v-616z" />
<glyph unicode="&#x40b;" horiz-adv-x="1732" d="M69 1149v307h1140v-307h-106l-9 205h-446v-546q92 25 182.5 38.5t194.5 13.5q239 0 361 -105.5t122 -341.5v-312l163 -13v-88h-445v88l163 13v312q0 185 -90 265t-274 80q-97 0 -190 -13.5t-187 -38.5v-605l163 -13v-88h-446v88l163 13v1253h-344l-8 -205h-107z" />
<glyph unicode="&#x40c;" horiz-adv-x="1417" d="M71 0v88l163 13v1253l-163 13v89h445v-89l-163 -13v-568h199l490 573l-140 8v89h407v-89l-128 -12l-521 -615l562 -640l131 -12v-88h-415v88l138 8l-523 589h-200v-584l163 -13v-88h-445zM71 0zM576 1521l206 266h147l3 -6l-249 -260h-107z" />
<glyph unicode="&#x40d;" horiz-adv-x="1562" d="M77 0v88l163 13v1253l-163 13v89h163h119h163v-89l-163 -13v-990l6 -2l828 876v116l-163 13v89h163h119h163v-89l-163 -13v-1253l163 -13v-88h-445v88l163 13v981l-6 2l-828 -879v-104l163 -13v-88h-445zM77 0zM472 1828l2 5h154l202 -266h-117z" />
<glyph unicode="&#x40e;" horiz-adv-x="1398" d="M42 0zM42 1367v89h382v-89l-122 -9l357 -698l63 -147h6l372 844l-128 10v89h384v-89l-116 -9l-513 -1110q-58 -122 -132 -195.5t-220 -73.5q-23 0 -53 3.5t-40 7.5l11 97q11 -3 37.5 -5t46.5 -2q87 0 137.5 50t97.5 145l53 107l-501 975zM430 1829l2 6h94q0 -77 45 -124 t142 -47q94 0 140 48t46 123h94l2 -6q4 -111 -73 -181.5t-209 -70.5q-134 0 -211 70t-72 182z" />
<glyph unicode="&#x40f;" horiz-adv-x="1560" d="M77 0v88l163 13v1253l-163 13v89h282h163v-89l-163 -13v-1253h829v1253l-163 13v89h445v-89l-163 -13v-1253l163 -13v-88h-631v-353h-120v353h-642z" />
<glyph unicode="&#x410;" horiz-adv-x="1485" d="M55 0v88l107 8l517 1360h113l512 -1360l109 -8v-88h-359v88l127 10l-120 326h-654l-121 -326l127 -10v-88h-358zM55 0zM447 531h575l-283 770h-6z" />
<glyph unicode="&#x411;" horiz-adv-x="1316" d="M66 0v88l163 13v1253l-163 13v89h1039v-307h-107l-9 205h-637v-532h365q230 0 355 -111t125 -298q0 -188 -125.5 -300.5t-354.5 -112.5h-651zM352 101h365q181 0 270.5 88.5t89.5 225.5q0 131 -90 218t-270 87h-365v-619z" />
<glyph unicode="&#x412;" horiz-adv-x="1322" d="M71 0v88l163 13v1253l-163 13v89h163h425q227 0 353.5 -95.5t126.5 -287.5q0 -112 -63.5 -195t-172.5 -115q133 -24 216 -125t83 -233q0 -195 -126.5 -300t-338.5 -105h-666zM71 0zM353 101h384q161 0 253 79.5t92 222.5q0 131 -83.5 215t-242.5 84h-403v-601zM353 803 h335q158 0 244.5 69.5t86.5 204.5q0 138 -92 207.5t-268 69.5h-306v-551z" />
<glyph unicode="&#x413;" horiz-adv-x="1209" d="M77 0v88l163 13v1253l-163 13v89h1039v-307h-107l-9 205h-641v-1253l163 -13v-88h-445zM77 0z" />
<glyph unicode="&#x414;" horiz-adv-x="1544" d="M55 101h98q82 86 163 284t98 547l21 422l-158 13v89h1129v-89l-163 -13v-1253h156l-9 -454h-111v353h-1105v-353h-106zM291 101h832v1253h-568l-21 -422q-15 -285 -82.5 -499.5t-160.5 -331.5z" />
<glyph unicode="&#x415;" horiz-adv-x="1286" d="M71 0v88l163 13v1253l-163 13v89h163h917v-320h-106l-9 218h-683v-547h597v-102h-597v-604h688l9 218h106v-319h-1085zM71 0z" />
<glyph unicode="&#x416;" horiz-adv-x="2029" d="M58 1432q24 16 54 25.5t64 9.5q70 0 125.5 -33.5t125.5 -133.5l362 -514h163v568l-163 13v89h445v-89l-163 -13v-568h170l362 514q69 100 124.5 133.5t127.5 33.5q33 0 62.5 -9.5t54.5 -25.5l-26 -89q-17 6 -35.5 10t-37.5 4q-50 0 -86 -24t-87 -94l-351 -494l465 -646 l142 -11v-88h-385v88l94 7l-418 584h-176v-578l163 -13v-88h-445v88l163 13v578h-180l-418 -584l95 -7v-88h-386v88l142 11l469 651l-344 489q-52 70 -88 94t-85 24q-20 0 -38.5 -4t-34.5 -10z" />
<glyph unicode="&#x417;" horiz-adv-x="1216" d="M76 398l2 6h111q0 -140 108 -232t279 -92q191 0 298.5 84t107.5 227q0 155 -101.5 227.5t-300.5 72.5h-174v103h174q195 0 287 74t92 209q0 134 -97.5 216t-294.5 82q-123 0 -216 -42.5t-150 -111.5l-17 -210h-93v245q67 94 194.5 157.5t290.5 63.5q233 0 368 -105 t135 -299q0 -109 -69.5 -196.5t-192.5 -130.5q140 -39 212 -128t72 -223q0 -195 -145.5 -305.5t-379.5 -110.5q-205 0 -355 108t-145 311z" />
<glyph unicode="&#x418;" horiz-adv-x="1562" d="M77 0v88l163 13v1253l-163 13v89h163h119h163v-89l-163 -13v-990l6 -2l828 876v116l-163 13v89h163h119h163v-89l-163 -13v-1253l163 -13v-88h-445v88l163 13v981l-6 2l-828 -879v-104l163 -13v-88h-445z" />
<glyph unicode="&#x419;" horiz-adv-x="1562" d="M77 0v88l163 13v1253l-163 13v89h163h119h163v-89l-163 -13v-990l6 -2l828 876v116l-163 13v89h163h119h163v-89l-163 -13v-1253l163 -13v-88h-445v88l163 13v981l-6 2l-828 -879v-104l163 -13v-88h-445zM77 0zM475 1829l2 6h94q0 -77 45 -124t142 -47q94 0 140 48 t46 123h94l2 -6q4 -111 -73 -181.5t-209 -70.5q-134 0 -211 70t-72 182z" />
<glyph unicode="&#x41a;" horiz-adv-x="1412" d="M71 0v88l163 13v1253l-163 13v89h445v-89l-163 -13v-574h200l385 520q73 99 128 133t124 34q32 0 60 -9.5t54 -25.5l-26 -90q-17 6 -36 10.5t-38 4.5q-50 0 -85.5 -24.5t-87.5 -93.5l-372 -498l563 -641l131 -12v-88h-415v88l138 8l-513 578h-210v-573l163 -13v-88h-445z " />
<glyph unicode="&#x41b;" horiz-adv-x="1507" d="M57 0v101h37q147 0 207 145.5t80 550.5l31 557l-157 13v89h1174v-89l-163 -13v-1253l163 -13v-88h-446v88l163 13v1253h-615l-31 -557q-21 -441 -103.5 -619t-298.5 -178h-41z" />
<glyph unicode="&#x41c;" horiz-adv-x="1861" d="M71 0v88l163 13v1253l-163 13v89h163h157l535 -1282h6l537 1282h321v-89l-163 -13v-1253l163 -13v-88h-445v88l163 13v542l10 637l-6 2l-541 -1282h-83l-540 1276l-6 -1l11 -632v-542l163 -13v-88h-445zM71 0z" />
<glyph unicode="&#x41d;" horiz-adv-x="1537" d="M71 0v88l163 13v1253l-163 13v89h445v-89l-163 -13v-582h828v582l-163 13v89h163h119h163v-89l-163 -13v-1253l163 -13v-88h-445v88l163 13v569h-828v-569l163 -13v-88h-445zM71 0z" />
<glyph unicode="&#x41e;" horiz-adv-x="1468" d="M106 0zM106 718v19q0 327 172 533.5t448 206.5q280 0 455.5 -206.5t175.5 -533.5v-19q0 -328 -175 -533.5t-455 -205.5q-276 0 -448.5 206t-172.5 533zM226 718q0 -285 135 -460t366 -175q237 0 373.5 174.5t136.5 460.5v21q0 283 -138 458t-373 175q-231 0 -365.5 -175 t-134.5 -458v-21z" />
<glyph unicode="&#x41f;" horiz-adv-x="1561" d="M77 0v88l163 13v1253l-163 13v89h1393v-89l-163 -13v-1253l163 -13v-88h-445v88l163 13v1253h-829v-1253l163 -13v-88h-445zM77 0z" />
<glyph unicode="&#x420;" horiz-adv-x="1276" d="M71 0v88l163 13v1253l-163 13v89h163h451q229 0 354.5 -116.5t125.5 -308.5q0 -194 -125.5 -310t-354.5 -116h-332v-504l163 -13v-88h-445zM71 0zM353 707h332q180 0 270.5 91.5t90.5 230.5q0 140 -90 232.5t-271 92.5h-332v-647z" />
<glyph unicode="&#x421;" horiz-adv-x="1349" d="M103 0zM103 718v19q0 325 177.5 532.5t464.5 207.5q162 0 289.5 -63.5t195.5 -157.5v-256h-93l-17 221q-58 69 -151 111.5t-215 42.5q-244 0 -388 -177.5t-144 -458.5v-21q0 -281 142.5 -459.5t374.5 -178.5q123 0 223.5 43t157.5 111l17 221h93v-256 q-68 -94 -198.5 -157t-292.5 -63q-280 0 -458 207.5t-178 531.5z" />
<glyph unicode="&#x422;" horiz-adv-x="1280" d="M60 0zM60 1149v307h1158v-307h-106l-9 205h-404v-1253l163 -13v-88h-446v88l163 13v1253h-404l-8 -205h-107z" />
<glyph unicode="&#x423;" horiz-adv-x="1398" d="M42 1367v89h382v-89l-122 -9l357 -698l63 -147h6l372 844l-128 10v89h384v-89l-116 -9l-513 -1110q-58 -122 -132 -195.5t-220 -73.5q-23 0 -53 3.5t-40 7.5l11 97q11 -3 37.5 -5t46.5 -2q87 0 137.5 50t97.5 145l53 107l-501 975z" />
<glyph unicode="&#x424;" horiz-adv-x="1525" d="M76 730q0 241 167 400.5t432 159.5h27v133l-163 14v88h446v-88l-163 -14v-133h27q265 0 432.5 -158.5t167.5 -399.5q0 -242 -168 -401.5t-432 -159.5h-27v-138l163 -14v-88h-446v88l163 14v138h-27q-266 0 -432.5 158.5t-166.5 400.5zM196 730q0 -205 127.5 -331 t351.5 -126h27v916h-27q-223 0 -351 -128t-128 -331zM822 273h29q221 0 349.5 127t128.5 332q0 202 -128.5 329.5t-349.5 127.5h-29v-916z" />
<glyph unicode="&#x425;" horiz-adv-x="1397" d="M54 0v88l122 10l453 640l-438 619l-122 10v89h400v-89l-139 -6l368 -532l369 532l-137 6v89h399v-89l-122 -10l-437 -619l453 -640l123 -10v-88h-399v88l137 6l-384 553l-385 -553l138 -6v-88h-399zM54 0z" />
<glyph unicode="&#x426;" horiz-adv-x="1579" d="M77 0v88l163 13v1253l-163 13v89h282h163v-89l-163 -13v-1253h829v1253l-163 13v89h163h119h163v-89l-163 -13v-1253h159v-452h-118v351h-1271z" />
<glyph unicode="&#x427;" horiz-adv-x="1491" d="M59 1367v89h282h163v-89l-163 -13v-301q0 -186 89 -265.5t275 -79.5q102 0 200 14.5t199 43.5v588l-163 13v89h283h163v-89l-163 -13v-1253l163 -13v-88h-446v88l163 13v563q-101 -29 -196 -43.5t-203 -14.5q-240 0 -361.5 105t-121.5 342v301z" />
<glyph unicode="&#x428;" horiz-adv-x="2017" d="M77 0v88l163 13v1253l-163 13v89h283h163v-89l-163 -13v-1253h584v1253l-163 13v89h446v-89l-163 -13v-1253h584v1253l-163 13v89h163h119h163v-89l-163 -13v-1253l163 -13v-88h-1853z" />
<glyph unicode="&#x429;" horiz-adv-x="2024" d="M77 0v88l163 13v1253l-163 13v89h163h120h163v-89l-163 -13v-1253h584v1253l-163 13v89h283h163v-89l-163 -13v-1253h584v1253l-163 13v89h163h282v-89l-163 -13v-1252h173l-9 -453h-110v351h-1744z" />
<glyph unicode="&#x42a;" horiz-adv-x="1661" d="M70 1150v306h652h163v-89l-163 -13v-532h365q230 0 355 -111t125 -298q0 -188 -125.5 -300.5t-354.5 -112.5h-647v88l163 13v1253h-418l-8 -204h-107zM722 101h365q181 0 270.5 88.5t89.5 225.5q0 131 -90 218t-270 87h-365v-619z" />
<glyph unicode="&#x42b;" horiz-adv-x="1769" d="M78 0v88l163 13v1253l-163 13v89h163h119v-634h365q230 0 355 -111t125 -298q0 -188 -125.5 -300.5t-354.5 -112.5h-647zM360 101h365q181 0 270.5 88.5t89.5 225.5q0 131 -90 218t-270 87h-365v-619zM360 1354v102h163v-89zM1272 0v88l163 13v1253l-163 13v89h446v-89 l-163 -13v-1253l163 -13v-88h-446z" />
<glyph unicode="&#x42c;" horiz-adv-x="1320" d="M70 0v88l163 13v1253l-163 13v89h163h119v-634h365q230 0 355 -111t125 -298q0 -188 -125.5 -300.5t-354.5 -112.5h-647zM352 101h365q181 0 270.5 88.5t89.5 225.5q0 131 -90 218t-270 87h-365v-619zM352 1354v102h163v-89z" />
<glyph unicode="&#x42d;" horiz-adv-x="1268" d="M89 199v257h93l17 -221q55 -69 155.5 -111.5t225.5 -42.5q224 0 356 168t136 438l-3 5h-595v101h594l2 5q-10 258 -143 417.5t-362 159.5q-123 0 -216.5 -42.5t-149.5 -111.5l-17 -221h-93v257q67 93 195 156.5t290 63.5q284 0 453 -205.5t169 -533.5v-20 q0 -327 -169.5 -532.5t-446.5 -205.5q-163 0 -293.5 62.5t-197.5 156.5z" />
<glyph unicode="&#x42e;" horiz-adv-x="1941" d="M57 0v88l163 13v1253l-163 13v89h446v-89l-163 -13v-589h271q9 315 180 512.5t440 197.5q280 0 455.5 -206.5t175.5 -533.5v-19q0 -328 -175 -533.5t-455 -205.5q-264 0 -434.5 190t-185.5 497h-272v-563l163 -13v-88h-446zM731 716q0 -285 135 -460t366 -175 q237 0 373.5 174.5t136.5 460.5v21q0 283 -138 458t-373 175q-231 0 -365.5 -175t-134.5 -458v-21z" />
<glyph unicode="&#x42f;" horiz-adv-x="1372" d="M52 25l26 90q13 -7 28.5 -10.5t32.5 -3.5q46 0 82 30.5t70 100.5l199 404l-3 2q-151 46 -229.5 143t-78.5 242q0 208 131 320.5t362 112.5h608v-89l-163 -13v-1253l163 -13v-88h-447v88l163 13v505h-409l-203 -435q-44 -94 -102.5 -136.5t-125.5 -42.5q-31 0 -56 8 t-48 25zM299 1025q0 -143 89.5 -229.5t249.5 -86.5h358v645h-324q-184 0 -278.5 -86t-94.5 -243z" />
<glyph unicode="&#x430;" d="M104 0zM104 283q0 150 129 238t350 88h239v143q0 116 -74.5 182t-208.5 66q-90 0 -164.5 -24.5t-124.5 -66.5l-10 -145h-99l1 208q75 58 179.5 94t222.5 36q179 0 288 -91t109 -261v-532q0 -33 1.5 -63.5t6.5 -59.5l108 -7v-88h-213q-12 55 -17 95t-5 81 q-60 -85 -160 -141t-225 -56q-159 0 -246 82t-87 222zM223 279q0 -87 60.5 -140.5t166.5 -53.5q130 0 229 60t143 155v217h-241q-163 0 -260.5 -67.5t-97.5 -170.5z" />
<glyph unicode="&#x431;" horiz-adv-x="1162" d="M106 493v157q0 314 130.5 504.5t354.5 226.5q151 23 213.5 61t62.5 111h94l2 -6q4 -136 -83.5 -192.5t-263.5 -79.5q-155 -19 -261.5 -131t-127.5 -304l4 -5q58 79 155.5 127t214.5 48q209 0 335.5 -136t126.5 -348v-33q0 -226 -131 -370t-347 -144q-217 0 -348 144 t-131 370zM225 493q0 -175 95 -294t265 -119q167 0 262.5 119t95.5 294v33q0 160 -96 271.5t-264 111.5t-263 -112t-95 -271v-33z" />
<glyph unicode="&#x432;" horiz-adv-x="1249" d="M97 0v88l163 13v879l-163 13v89h163h397q202 0 314 -72.5t112 -216.5q0 -83 -50.5 -146t-141.5 -91q106 -20 170.5 -91.5t64.5 -164.5q0 -147 -107.5 -223.5t-292.5 -76.5h-629zM379 100h347q134 0 207 52t73 150q0 90 -74 143t-206 53h-347v-398zM379 598h289 q145 0 220 48.5t75 143.5q0 97 -77 143.5t-229 46.5h-278v-382z" />
<glyph unicode="&#x433;" horiz-adv-x="1050" d="M72 0v88l163 13v879l-163 13v89h830v-18h15v-215h-88l-9 130h-466v-878l163 -13v-88h-445z" />
<glyph unicode="&#x434;" horiz-adv-x="1277" d="M66 101h78q86 108 137 226.5t62 363.5l13 289l-158 13v89h965v-89l-163 -13v-879h112l-9 -419h-110v318h-813v-318h-106zM282 101h598v869h-405l-13 -279q-9 -212 -57 -355t-123 -235z" />
<glyph unicode="&#x435;" horiz-adv-x="1102" d="M102 0zM102 509v55q0 232 133.5 385t322.5 153q199 0 313 -126t114 -336v-102h-764v-29q0 -182 97.5 -305.5t255.5 -123.5q111 0 190 31t135 89l51 -82q-61 -64 -154 -101.5t-222 -37.5q-204 0 -338 149.5t-134 380.5zM230 644l2 -5h634v30q0 141 -83 236t-225 95 q-132 0 -222.5 -101.5t-105.5 -254.5z" />
<glyph unicode="&#x436;" horiz-adv-x="1767" d="M58 0v88l152 11l373 463l-235 316q-48 62 -83 85.5t-80 23.5q-21 0 -36.5 -4t-32.5 -10l-26 88q27 17 53.5 26.5t59.5 9.5q65 0 120.5 -36t117.5 -122l247 -337h137v378l-163 13v89h446v-89l-163 -13v-378h146l246 337q62 86 117 122t121 36q32 0 59 -9.5t54 -26.5 l-26 -88q-16 6 -32.5 10t-35.5 4q-47 0 -82 -23.5t-82 -85.5l-238 -320l369 -459l152 -11v-88h-224l-397 496h-147v-395l163 -13v-88h-446v88l163 13v395h-146l-397 -496h-224z" />
<glyph unicode="&#x437;" horiz-adv-x="1038" d="M89 304l2 6h110q0 -96 85 -162t214 -66q141 0 217 58t76 155q0 107 -71 156t-218 49h-164v104h164q142 0 206 49.5t64 142.5q0 89 -67.5 145.5t-206.5 56.5q-117 0 -199 -59t-82 -149h-111l-2 6q-6 133 111 218t283 85q185 0 289.5 -79t104.5 -226q0 -79 -49 -142 t-139 -97q102 -30 154.5 -95t52.5 -163q0 -148 -113.5 -231.5t-299.5 -83.5q-167 0 -291.5 83.5t-119.5 238.5z" />
<glyph unicode="&#x438;" horiz-adv-x="1372" d="M97 0v88l163 13v879l-163 13v89h282h163v-89l-163 -13v-780l6 -1l578 883h120h163v-89l-163 -13v-879l163 -13v-88h-446v88l163 13v782l-6 2l-578 -885h-282z" />
<glyph unicode="&#x439;" horiz-adv-x="1372" d="M97 0v88l163 13v879l-163 13v89h282h163v-89l-163 -13v-780l6 -1l578 883h120h163v-89l-163 -13v-879l163 -13v-88h-446v88l163 13v782l-6 2l-578 -885h-282zM97 0zM404 1494l2 6h94q0 -77 45 -124t142 -47q94 0 140 48t46 123h94l2 -6q4 -111 -73 -181.5t-209 -70.5 q-134 0 -211 70t-72 182z" />
<glyph unicode="&#x43a;" horiz-adv-x="1245" d="M97 0v88l163 13v879l-163 13v89h446v-89l-163 -13v-378h160l265 337q67 86 120.5 122t117.5 36q32 0 58.5 -9.5t54.5 -26.5l-26 -88q-18 6 -33.5 10t-35.5 4q-44 0 -80 -25t-83 -84l-252 -319l407 -459l142 -12v-88h-211l-438 496h-166v-395l163 -13v-88h-446z" />
<glyph unicode="&#x43b;" horiz-adv-x="1294" d="M69 0l1 107l38 1q110 0 159.5 110.5t49.5 385.5v376l-163 13v89h1024v-89l-163 -13v-879l163 -13v-88h-446v88l163 13v878h-458v-375q0 -318 -74.5 -461t-250.5 -143h-43z" />
<glyph unicode="&#x43c;" horiz-adv-x="1702" d="M97 0v88l163 13v879l-163 13v89h163h156l426 -914h6l427 914h148h163v-89l-163 -13v-879l163 -13v-88h-446v88l163 13v770l-6 2l-409 -873h-85l-418 895l-6 -1v-793l163 -13v-88h-445z" />
<glyph unicode="&#x43d;" horiz-adv-x="1371" d="M97 0v88l163 13v879l-163 13v89h445v-89l-163 -13v-383h583v383l-163 13v89h163h120h163v-89l-163 -13v-879l163 -13v-88h-446v88l163 13v395h-583v-395l163 -13v-88h-445z" />
<glyph unicode="&#x43e;" horiz-adv-x="1152" d="M97 0zM97 524v33q0 239 131 392t347 153q217 0 348 -153t131 -392v-33q0 -240 -130.5 -392.5t-346.5 -152.5q-218 0 -349 152.5t-131 392.5zM217 524q0 -188 95 -316t265 -128q167 0 262 128t95 316v33q0 185 -95.5 314t-263.5 129t-263 -129t-95 -314v-33z" />
<glyph unicode="&#x43f;" horiz-adv-x="1372" d="M97 0v88l163 13v879l-163 13v89h1149v-89l-163 -13v-879l163 -13v-88h-446v88l163 13v878h-584v-878l163 -13v-88h-445z" />
<glyph unicode="&#x440;" horiz-adv-x="1197" d="M65 0zM65 -327l163 13v1294l-163 13v89h263l15 -168q55 90 140.5 139t200.5 49q195 0 305 -155.5t110 -414.5v-21q0 -243 -110 -387.5t-303 -144.5q-114 0 -199.5 43.5t-139.5 123.5v-460l163 -13v-89h-445v89zM347 271q41 -89 118.5 -140t193.5 -51q157 0 238.5 118 t81.5 313v21q0 206 -82 336t-240 130q-121 0 -196.5 -57.5t-113.5 -149.5v-520z" />
<glyph unicode="&#x441;" horiz-adv-x="1094" d="M97 520v42q0 236 121 388t340 152q125 0 229 -47t169 -128l5 -236h-102l-19 192q-48 54 -119.5 85.5t-162.5 31.5q-174 0 -257.5 -124.5t-83.5 -313.5v-42q0 -192 83 -316t259 -124q119 0 210 68t91 189h106l2 -6q5 -150 -119.5 -251t-289.5 -101q-220 0 -341 151.5 t-121 389.5z" />
<glyph unicode="&#x442;" d="M84 775v307h947v-307h-106l-9 205h-306v-879l163 -13v-88h-445v88l163 13v879h-292l-8 -205h-107z" />
<glyph unicode="&#x443;" horiz-adv-x="1174" d="M46 0zM46 993v89h372v-89l-129 -10l264 -690l38 -130h6l296 820l-132 10v89h374v-89l-110 -9l-437 -1157q-42 -110 -109 -187t-196 -77q-21 0 -51 4.5t-44 9.5l14 100q12 -2 38.5 -4.5t37.5 -2.5q79 0 125 55t81 143l56 145l-384 971z" />
<glyph unicode="&#x444;" horiz-adv-x="1459" d="M91 511v21q0 260 102 415t288 155q53 0 97 -12.5t80 -34.5v403l-163 13v89h283v-508q35 24 81 37t103 13q185 0 288 -155t103 -415v-21q0 -243 -102.5 -387.5t-286.5 -144.5q-57 0 -103.5 12t-82.5 35v-340l163 -13v-89h-446v89l163 13v338q-36 -22 -81 -33.5t-98 -11.5 q-184 0 -286 144.5t-102 387.5zM211 511q0 -197 72 -314t219 -117q50 0 89 11t67 30v838q-27 18 -64.5 29.5t-89.5 11.5q-148 0 -220.5 -130t-72.5 -338v-21zM778 119q28 -18 67 -28.5t92 -10.5q147 0 221.5 117.5t74.5 313.5v21q0 207 -75 337.5t-223 130.5 q-54 0 -93 -12.5t-64 -31.5v-837z" />
<glyph unicode="&#x445;" horiz-adv-x="1192" d="M73 0v88l121 11l342 452l-326 431l-122 11v89h367v-89l-112 -6l258 -347l259 348l-111 5v89h367v-89l-121 -11l-326 -431l341 -452l122 -11v-88h-366v88l111 5l-275 368l-274 -368l111 -5v-88h-366zM73 0z" />
<glyph unicode="&#x446;" horiz-adv-x="1338" d="M70 0v88l163 13v879l-163 13v89h163h119h163v-89l-163 -13v-879h584v879l-163 13v89h283v-981h126l-9 -422h-109v321h-994zM1056 980v102h163v-89z" />
<glyph unicode="&#x447;" horiz-adv-x="1335" d="M65 994v88h282h163v-88l-163 -13v-173q0 -170 69.5 -237t224.5 -67q72 1 145.5 15t137.5 37v424l-163 13v89h445v-89l-163 -13v-879l163 -13v-88h-445v88l163 13v354q-69 -25 -142 -39.5t-141 -14.5q-209 0 -311 93.5t-102 313.5v173z" />
<glyph unicode="&#x448;" horiz-adv-x="1856" d="M97 0v88l163 13v879l-163 13v89h282h163v-89l-163 -13v-879h482v981h120v-981h477v879l-163 13v89h282h163v-89l-163 -13v-879l163 -13v-88h-1643z" />
<glyph unicode="&#x449;" horiz-adv-x="1857" d="M92 0v88l163 13v879l-163 13v89h163h119h163v-89l-163 -13v-879h482v981h120v-981h477v879l-163 13v89h163h119h163v-89l-163 -13v-878h168l-9 -423h-110v321h-1529z" />
<glyph unicode="&#x44a;" horiz-adv-x="1413" d="M63 776v306h527h163v-89l-163 -13v-291h310q186 0 291 -95.5t105 -247.5q0 -153 -105 -249.5t-291 -96.5h-592v88l163 13v879h-293l-8 -204h-107zM590 101h310q139 0 207.5 69.5t68.5 173.5q0 100 -69 171.5t-207 71.5h-310v-486z" />
<glyph unicode="&#x44b;" horiz-adv-x="1625" d="M97 0v88l163 13v879l-163 13v89h163h119v-393h310q186 0 291 -95.5t105 -247.5q0 -153 -105 -249.5t-291 -96.5h-592zM379 101h310q139 0 207.5 69.5t68.5 173.5q0 100 -69 171.5t-207 71.5h-310v-486zM379 980v102h163v-89zM1139 0v88l163 13v879l-163 13v89h282v-981 l163 -13v-88h-445z" />
<glyph unicode="&#x44c;" horiz-adv-x="1191" d="M97 0v88l163 13v879l-163 13v89h163h119v-393h310q186 0 291 -95.5t105 -247.5q0 -153 -105 -249.5t-291 -96.5h-592zM379 101h310q139 0 207.5 69.5t68.5 173.5q0 100 -69 171.5t-207 71.5h-310v-486zM379 980v102h163v-89z" />
<glyph unicode="&#x44d;" horiz-adv-x="1077" d="M121 331l2 6h105q0 -121 91 -189t211 -68q168 0 251.5 116t86.5 295l-3 5h-494v101h493l2 5q-4 171 -87.5 284.5t-247.5 113.5q-92 0 -164 -31.5t-118 -85.5l-20 -192h-101l4 236q65 81 168.5 128t230.5 47q218 0 339 -152t121 -388v-42q0 -238 -121 -389.5t-340 -151.5 q-166 0 -290.5 101t-118.5 251z" />
<glyph unicode="&#x44e;" horiz-adv-x="1735" d="M81 0v88l163 13v879l-163 13v89h282v-493h285q9 226 139 369.5t338 143.5q217 0 348 -153t131 -392v-33q0 -240 -130.5 -392.5t-346.5 -152.5q-209 0 -339 141t-140 368h-285v-387l163 -13v-88h-445zM767 524q0 -188 95 -316t265 -128q167 0 262 128t95 316v33 q0 185 -95.5 314t-263.5 129t-263 -129t-95 -314v-33z" />
<glyph unicode="&#x44f;" horiz-adv-x="1275" d="M65 0v88l130 10l214 352q-112 30 -173 112t-61 197q0 142 102.5 232.5t285.5 90.5h589v-89l-163 -13v-879l163 -13v-88h-446v88l163 13v335h-337l-264 -436h-203zM295 757q0 -92 58.5 -155.5t176.5 -63.5h339v442h-306q-134 0 -201 -64.5t-67 -158.5z" />
<glyph unicode="&#x450;" horiz-adv-x="1102" d="M102 0zM102 509v55q0 232 133.5 385t322.5 153q199 0 313 -126t114 -336v-102h-764v-29q0 -182 97.5 -305.5t255.5 -123.5q111 0 190 31t135 89l51 -82q-61 -64 -154 -101.5t-222 -37.5q-204 0 -338 149.5t-134 380.5zM230 644l2 -5h634v30q0 141 -83 236t-225 95 q-132 0 -222.5 -101.5t-105.5 -254.5zM272 1505l2 5h154l202 -266h-117z" />
<glyph unicode="&#x451;" horiz-adv-x="1102" d="M102 0zM102 509v55q0 232 133.5 385t322.5 153q199 0 313 -126t114 -336v-102h-764v-29q0 -182 97.5 -305.5t255.5 -123.5q111 0 190 31t135 89l51 -82q-61 -64 -154 -101.5t-222 -37.5q-204 0 -338 149.5t-134 380.5zM230 644l2 -5h634v30q0 141 -83 236t-225 95 q-132 0 -222.5 -101.5t-105.5 -254.5zM234 1318v157h174v-157h-174zM704 1318v157h173v-157h-173z" />
<glyph unicode="&#x452;" horiz-adv-x="1245" d="M18 1217v82h207v159l-163 13v89h282v-261h247v-82h-247v-320q54 97 144 151t210 54q171 0 262.5 -106t91.5 -329v-756q0 -167 -80.5 -257.5t-223.5 -90.5q-34 0 -63 5t-61 14l14 99q17 -6 51.5 -11t58.5 -5q87 0 135.5 64.5t48.5 181.5v758q0 176 -69.5 252.5 t-191.5 76.5q-123 0 -205.5 -64.5t-121.5 -171.5v-661l163 -13v-88h-445v88l163 13v1116h-207z" />
<glyph unicode="&#x453;" horiz-adv-x="1050" d="M72 0v88l163 13v879l-163 13v89h830v-18h15v-215h-88l-9 130h-466v-878l163 -13v-88h-445zM72 0zM444 1225l206 266h147l3 -6l-249 -260h-107z" />
<glyph unicode="&#x454;" horiz-adv-x="1101" d="M116 520v42q0 236 121 388t340 152q125 0 229 -47t169 -128l5 -236h-102l-19 192q-48 54 -119.5 85.5t-162.5 31.5q-167 0 -250.5 -115t-85.5 -288l2 -5h468v-101h-468l-2 -5q2 -177 85 -291.5t252 -114.5q119 0 210 68t91 189h106l2 -6q5 -150 -119.5 -251t-289.5 -101 q-220 0 -341 151.5t-121 389.5z" />
<glyph unicode="&#x455;" horiz-adv-x="1025" d="M116 0zM116 107v218h97l17 -154q48 -48 121.5 -69.5t153.5 -21.5q130 0 205 57t75 138q0 76 -62.5 133t-225.5 93q-193 42 -286.5 111.5t-93.5 194.5q0 124 105 209.5t277 85.5q119 0 217.5 -36.5t160.5 -98.5l5 -219h-98l-14 153q-45 47 -113.5 73t-157.5 26 q-131 0 -196.5 -56.5t-65.5 -132.5q0 -75 56.5 -124t225.5 -86q193 -43 289 -117.5t96 -202.5q0 -135 -109.5 -218.5t-289.5 -83.5q-120 0 -218.5 33.5t-170.5 94.5z" />
<glyph unicode="&#x456;" horiz-adv-x="638" d="M89 0v88l163 13v879l-163 13v89h282v-981l163 -13v-88h-445zM89 0zM252 1392v168h119v-168h-119z" />
<glyph unicode="&#x457;" horiz-adv-x="637" d="M-14 1306v157h174v-157h-174zM0 0zM90 0v88l163 13v879l-163 13v89h282v-981l163 -13v-88h-445zM456 1306v157h173v-157h-173z" />
<glyph unicode="&#x458;" horiz-adv-x="562" d="M-13 -418l13 101q15 -5 42.5 -10t49.5 -5q90 0 140 61.5t50 181.5v1069l-163 13v89h283v-1171q0 -167 -80 -257.5t-223 -90.5q-31 0 -57.5 5t-54.5 14zM0 0zM276 1396v164h120v-164h-120z" />
<glyph unicode="&#x459;" horiz-adv-x="1790" d="M65 0l1 103h38q110 0 161.5 113.5t51.5 387.5v376l-163 13v89h844h163v-89l-163 -13v-331h310q187 0 291.5 -90t104.5 -233q0 -144 -104.5 -235t-291.5 -91h-593v88l163 13v878h-441v-375q0 -317 -76 -460.5t-253 -143.5h-43zM998 100h310q139 0 207.5 66t68.5 162 q0 92 -68.5 156t-207.5 64h-310v-448z" />
<glyph unicode="&#x45a;" horiz-adv-x="1885" d="M97 0v88l163 13v879l-163 13v89h445v-89l-163 -13v-328h583v328l-163 13v89h163h120h163v-89l-163 -13v-331h310q187 0 291.5 -90t104.5 -233q0 -144 -104.5 -235t-291.5 -91h-593v88l163 13v450h-583v-450l163 -13v-88h-445zM1082 100h310q139 0 207.5 66t68.5 162 q0 92 -68.5 156t-207.5 64h-310v-448z" />
<glyph unicode="&#x45b;" horiz-adv-x="1298" d="M31 1224v102h194v132l-163 13v89h282v-234h299v-102h-299v-327q54 97 144 151t210 54q171 0 262.5 -106t91.5 -329v-566l163 -13v-88h-446v88l163 13v568q0 176 -69.5 252.5t-191.5 76.5q-123 0 -205.5 -64.5t-121.5 -171.5v-661l163 -13v-88h-445v88l163 13v1123h-194z " />
<glyph unicode="&#x45c;" horiz-adv-x="1245" d="M97 0v88l163 13v879l-163 13v89h446v-89l-163 -13v-378h160l265 337q67 86 120.5 122t117.5 36q32 0 58.5 -9.5t54.5 -26.5l-26 -88q-18 6 -33.5 10t-35.5 4q-44 0 -80 -25t-83 -84l-252 -319l407 -459l142 -12v-88h-211l-438 496h-166v-395l163 -13v-88h-446zM97 0z M544 1216l206 266h147l3 -6l-249 -260h-107z" />
<glyph unicode="&#x45d;" horiz-adv-x="1372" d="M97 0v88l163 13v879l-163 13v89h282h163v-89l-163 -13v-780l6 -1l578 883h120h163v-89l-163 -13v-879l163 -13v-88h-446v88l163 13v782l-6 2l-578 -885h-282zM97 0zM401 1493l2 5h154l202 -266h-117z" />
<glyph unicode="&#x45e;" horiz-adv-x="1174" d="M46 0zM46 993v89h372v-89l-129 -10l264 -690l38 -130h6l296 820l-132 10v89h374v-89l-110 -9l-437 -1157q-42 -110 -109 -187t-196 -77q-21 0 -51 4.5t-44 9.5l14 100q12 -2 38.5 -4.5t37.5 -2.5q79 0 125 55t81 143l56 145l-384 971zM308 1494l2 6h94q0 -77 45 -124 t142 -47q94 0 140 48t46 123h94l2 -6q4 -111 -73 -181.5t-209 -70.5q-134 0 -211 70t-72 182z" />
<glyph unicode="&#x45f;" horiz-adv-x="1373" d="M98 0v88l163 13v879l-163 13v89h282h163v-89l-163 -13v-879h584v879l-163 13v89h446v-89l-163 -13v-879l163 -13v-88h-512v-353h-119v353h-518z" />
<glyph unicode="&#x460;" horiz-adv-x="1756" d="M144 411v1045h119v-1045q0 -159 74 -245t194 -86q127 0 206.5 86.5t79.5 244.5v1045h122v-1045q0 -159 76.5 -245t201.5 -86q122 0 199 86.5t77 244.5v1045h120v-1045q0 -211 -109.5 -321.5t-286.5 -110.5q-118 0 -207 53.5t-133 159.5q-46 -106 -136 -159.5t-210 -53.5 q-174 0 -280.5 110.5t-106.5 321.5z" />
<glyph unicode="&#x461;" horiz-adv-x="1619" d="M150 382v700h119v-700q0 -145 66 -223.5t173 -78.5q114 0 185.5 78.5t71.5 223.5v700h120v-700q0 -145 68.5 -223.5t179.5 -78.5q110 0 178.5 78.5t68.5 223.5v700h120v-700q0 -197 -101.5 -300t-265.5 -103q-107 0 -187.5 47.5t-121.5 140.5q-44 -93 -126.5 -140.5 t-189.5 -47.5q-162 0 -260 103t-98 300z" />
<glyph unicode="&#x462;" horiz-adv-x="1320" d="M10 1070v102h223v182l-163 13v89h282v-284h270v-102h-270v-248h365q230 0 355 -111t125 -298q0 -188 -125.5 -300.5t-354.5 -112.5h-647v88l163 13v969h-223zM352 101h365q181 0 270.5 88.5t89.5 225.5q0 131 -90 218t-270 87h-365v-619zM352 1354v102h163v-89z" />
<glyph unicode="&#x463;" horiz-adv-x="1137" d="M21 1082v101h199v276l-163 13v89h282v-378h326v-101h-326v-375h310q187 0 291.5 -98t104.5 -254q0 -157 -104.5 -256t-291.5 -99h-592v88l163 13v981h-199zM339 101h310q139 0 207.5 72t68.5 180q0 104 -69 178t-207 74h-310v-504z" />
<glyph unicode="&#x464;" horiz-adv-x="1774" d="M62 0v88l163 13v1253l-163 13v89h163h120h163v-89l-163 -13v-541h254q21 296 195.5 480.5t443.5 184.5q162 0 289.5 -63.5t195.5 -157.5v-256h-93l-17 221q-58 69 -151 111.5t-215 42.5q-227 0 -368 -155t-156 -402l3 -6h543v-102h-547l-3 -5q-1 -275 140.5 -450 t372.5 -175q123 0 223.5 43t157.5 111l17 221h93v-256q-68 -94 -198.5 -157t-292.5 -63q-278 0 -456 205t-180 526h-251v-610l163 -13v-88h-446z" />
<glyph unicode="&#x465;" horiz-adv-x="1589" d="M88 0v88l163 13v879l-163 13v89h163h119v-481h229q10 221 130 361t330 140q125 0 229 -47t169 -128l5 -236h-102l-19 192q-48 54 -119.5 85.5t-162.5 31.5q-165 0 -248 -112t-87 -282l2 -5h471v-101h-472l-3 -5q0 -180 83.5 -297.5t254.5 -117.5q119 0 210 68t91 189h106 l2 -6q5 -150 -119.5 -251t-289.5 -101q-216 0 -336.5 145t-125.5 376h-228v-399l163 -13v-88h-445z" />
<glyph unicode="&#x466;" horiz-adv-x="1430" d="M52 0v88l106 8l500 1360h113l496 -1360l107 -8v-88h-359v88l128 10l-139 386h-237v-484h-120v484h-225l-140 -386l128 -10v-88h-358zM460 590h506l-248 695h-6z" />
<glyph unicode="&#x467;" horiz-adv-x="1238" d="M61 0v88l93 8l412 986h105l413 -986l94 -8v-88h-177l-148 347h-171v-347h-119v347h-179l-145 -347h-178zM427 449h383l-153 360l-36 120h-6l-37 -120z" />
<glyph unicode="&#x468;" horiz-adv-x="1966" d="M64 0v88l163 13v1253l-163 13v89h163h120h163v-89l-163 -13v-764h531l318 866h113l496 -1360l107 -8v-88h-359v88l128 10l-139 386h-237v-484h-120v484h-225l-140 -386l128 -10v-88h-358v88l106 8l143 388h-492v-383l163 -13v-88h-446zM998 590h506l-248 695h-6z" />
<glyph unicode="&#x469;" horiz-adv-x="1736" d="M71 0v88l163 13v879l-163 13v89h163h119v-633h442l265 633h105l413 -986l94 -8v-88h-177l-148 347h-171v-347h-119v347h-179l-145 -347h-178v88l93 8l105 251h-400v-246l163 -13v-88h-445zM921 449h383l-153 360l-36 120h-6l-37 -120z" />
<glyph unicode="&#x46a;" horiz-adv-x="1845" d="M55 0v88l163 13v279q0 210 113 305t330 95h101l-369 576l-135 11v89h1275v-89l-135 -11l-368 -576h95q217 0 330.5 -94.5t113.5 -305.5v-279l163 -13v-88h-446v88l163 13v279q0 165 -77 231.5t-247 66.5h-160l-11 -17v-560l163 -13v-88h-446v88l163 13v566l-7 11h-166 q-170 0 -246.5 -67t-76.5 -231v-279l163 -13v-88h-446zM532 1354l354 -574h19l355 574h-728z" />
<glyph unicode="&#x46b;" horiz-adv-x="1593" d="M63 0v88l145 13v94q0 210 108.5 304.5t317.5 94.5h6l-259 388l-138 11v89h1067v-89l-138 -11l-260 -388q208 0 317 -94.5t109 -304.5v-94l145 -13v-88h-265v195q0 164 -73 230.5t-233 66.5h-68l-9 -14v-377l163 -13v-88h-446v88l163 13v381l-7 10h-74 q-161 0 -233.5 -66.5t-72.5 -230.5v-195h-265zM518 979l248 -385h21l248 385h-517z" />
<glyph unicode="&#x46c;" horiz-adv-x="2402" d="M61 0v88l163 13v1253l-163 13v89h163h120h163v-89l-163 -13v-574h840h21h101l-369 576l-135 11v89h1275v-89l-135 -11l-368 -576h95q217 0 330.5 -94.5t113.5 -305.5v-279l163 -13v-88h-446v88l163 13v279q0 165 -77 231.5t-247 66.5h-160l-11 -17v-560l163 -13v-88h-446 v88l163 13v566l-7 11h-182q-161 -4 -234 -71t-73 -227v-279l163 -13v-88h-446v88l163 13v279q0 101 26.5 175t78.5 123h-523v-577l163 -13v-88h-446zM1076 1354l354 -574h19l355 574h-728z" />
<glyph unicode="&#x46d;" horiz-adv-x="2113" d="M57 0v88l163 13v879l-163 13v89h282v-488h765l-259 388l-138 11v89h1067v-89l-138 -11l-260 -388q208 0 317 -94.5t109 -304.5v-94l145 -13v-88h-265v195q0 164 -73 230.5t-233 66.5h-68l-9 -14v-377l163 -13v-88h-446v88l163 13v381l-7 10h-74q-161 0 -233.5 -66.5 t-72.5 -230.5v-195h-265v88l145 13v94q0 101 25 174.5t75 122.5h-433v-391l163 -13v-88h-445zM982 979l248 -385h21l248 385h-517z" />
<glyph unicode="&#x46e;" horiz-adv-x="1040" d="M59 1056v236q64 80 168 127t230 47q205 0 329.5 -105.5t124.5 -287.5q0 -110 -70.5 -196.5t-195.5 -128.5q142 -38 215 -127.5t73 -224.5q0 -189 -143 -297t-361 -108h-67q-91 0 -131.5 -32.5t-40.5 -95.5q0 -65 54 -113.5t117 -71.5l-45 -87q-91 33 -165.5 107.5 t-74.5 168.5q0 108 73.5 166.5t216.5 58.5h63q175 0 279.5 81.5t104.5 218.5q0 154 -101.5 228t-298.5 74h-132v103h132q193 0 285 73t92 207q0 125 -84.5 206t-248.5 81q-94 0 -168 -31.5t-122 -84.5l-7 -192h-101zM221 1868v17h114l166 -169l167 169h115v-17l-233 -225 h-98z" />
<glyph unicode="&#x46f;" horiz-adv-x="943" d="M61 744v188q59 71 154.5 112.5t212.5 41.5q185 0 296.5 -78t111.5 -214q0 -79 -55.5 -144.5t-154.5 -101.5q114 -30 173 -93t59 -155q0 -145 -127.5 -227t-323.5 -82h-45q-91 0 -131 -32.5t-40 -95.5q0 -65 54 -113.5t117 -71.5l-45 -87q-92 33 -166.5 107.5t-74.5 168.5 q0 108 73.5 166.5t216.5 58.5h41q152 0 241.5 54.5t89.5 149.5q0 101 -87.5 149t-259.5 48h-132v103h132q166 0 245.5 53.5t79.5 148.5q0 81 -72.5 133.5t-215.5 53.5q-85 0 -151 -26.5t-109 -70.5l-6 -144h-101zM150 1539v17h114l166 -169l167 169h115v-17l-233 -225h-98z " />
<glyph unicode="&#x470;" horiz-adv-x="1640" d="M55 0zM55 1367v89h163h119v-520q0 -193 108.5 -310.5t283.5 -128.5l6 2v855l-163 13v89h163h120h163v-89l-163 -13v-855l6 -2q179 9 290.5 127t111.5 312v520h282v-89l-163 -13v-418q0 -246 -145 -390t-382 -158v-287l163 -13v-88h-446v88l163 13v287q-233 15 -375 159 t-142 389v418z" />
<glyph unicode="&#x471;" horiz-adv-x="1548" d="M3 0zM3 1050q35 23 80.5 36.5t93.5 13.5q83 0 123.5 -43t40.5 -139v-327q-1 -242 99 -365t275 -135l6 2v988h120v-990l6 -2q219 11 318 149.5t99 339.5q-1 129 -38 254.5t-101 249.5h131q59 -115 93.5 -231.5t34.5 -271.5q0 -260 -131.5 -422t-411.5 -176v-424h-120v425 q-239 18 -370 168.5t-130 442.5v302q0 51 -19.5 71t-56.5 20q-28 0 -57.5 -8t-52.5 -19z" />
<glyph unicode="&#x472;" horiz-adv-x="1386" d="M100 718v19q0 327 172 533.5t448 206.5q280 0 455.5 -206.5t175.5 -533.5v-19q0 -328 -175 -533.5t-455 -205.5q-276 0 -448.5 206t-172.5 533zM226 668q6 -263 139.5 -424t355.5 -161q227 0 361.5 160.5t142.5 424.5l-2 5h-995zM226 779l2 -5h995l2 5q-6 265 -141.5 429 t-363.5 164q-224 0 -357 -164t-137 -429z" />
<glyph unicode="&#x473;" horiz-adv-x="1180" d="M103 524v33q0 239 131 392t347 153q217 0 348 -153t131 -392v-33q0 -240 -130.5 -392.5t-346.5 -152.5q-218 0 -349 152.5t-131 392.5zM229 487q3 -174 97 -290.5t257 -116.5q159 0 252.5 117t98.5 290l-2 5h-701zM229 599l2 -5h701l2 5q-7 169 -100.5 285t-252.5 116 q-160 0 -253.5 -116.5t-98.5 -284.5z" />
<glyph unicode="&#x474;" horiz-adv-x="1387" d="M57 1367v89h364v-89l-131 -11l352 -1101l29 -101h6l29 101l307 953q44 145 112.5 206.5t176.5 61.5l28 -1l-1 -105h-11q-65 0 -112.5 -37t-83.5 -149l-392 -1184h-112l-458 1359z" />
<glyph unicode="&#x475;" horiz-adv-x="1183" d="M65 993v89h358v-89l-131 -11l234 -711l35 -127h6l38 127l186 593q42 126 104 181.5t149 55.5q30 0 57 -7t49 -20l-23 -93q-10 5 -27 10t-37 5q-49 0 -89 -32t-69 -120l-293 -844h-96l-346 985z" />
<glyph unicode="&#x476;" horiz-adv-x="1387" d="M57 0zM57 1367v89h364v-89l-131 -11l352 -1101l29 -101h6l29 101l307 953q44 145 112.5 206.5t176.5 61.5l28 -1l-1 -105h-11q-65 0 -112.5 -37t-83.5 -149l-392 -1184h-112l-458 1359zM225 1797l2 6h144l264 -260l-2 -6h-113zM530 1797l3 6h134l213 -261l-3 -5h-102z " />
<glyph unicode="&#x477;" horiz-adv-x="1183" d="M65 0zM65 993v89h358v-89l-131 -11l234 -711l35 -127h6l38 127l186 593q42 126 104 181.5t149 55.5q30 0 57 -7t49 -20l-23 -93q-10 5 -27 10t-37 5q-49 0 -89 -32t-69 -120l-293 -844h-96l-346 985zM126 1518l2 6h144l264 -260l-2 -6h-113zM431 1518l3 6h134l213 -261 l-3 -5h-102z" />
<glyph unicode="&#x478;" horiz-adv-x="2642" d="M106 0zM106 718v19q0 327 172 533.5t448 206.5q280 0 455.5 -206.5t175.5 -533.5v-19q0 -328 -175 -533.5t-455 -205.5q-276 0 -448.5 206t-172.5 533zM226 718q0 -285 135 -460t366 -175q237 0 373.5 174.5t136.5 460.5v21q0 283 -138 458t-373 175q-231 0 -365.5 -175 t-134.5 -458v-21zM1514 993v89h372v-89l-129 -10l264 -690l38 -130h6l296 820l-132 10v89h374v-89l-110 -9l-437 -1157q-42 -110 -109 -187t-196 -77q-21 0 -51 4.5t-44 9.5l14 100q12 -2 38.5 -4.5t37.5 -2.5q79 0 125 55t81 143l56 145l-384 971z" />
<glyph unicode="&#x479;" horiz-adv-x="2326" d="M97 0zM97 524v33q0 239 131 392t347 153q217 0 348 -153t131 -392v-33q0 -240 -130.5 -392.5t-346.5 -152.5q-218 0 -349 152.5t-131 392.5zM217 524q0 -188 95 -316t265 -128q167 0 262 128t95 316v33q0 185 -95.5 314t-263.5 129t-263 -129t-95 -314v-33zM1198 993v89 h372v-89l-129 -10l264 -690l38 -130h6l296 820l-132 10v89h374v-89l-110 -9l-437 -1157q-42 -110 -109 -187t-196 -77q-21 0 -51 4.5t-44 9.5l14 100q12 -2 38.5 -4.5t37.5 -2.5q79 0 125 55t81 143l56 145l-384 971z" />
<glyph unicode="&#x47a;" horiz-adv-x="1449" d="M100 718v19q0 327 172 533.5t448 206.5q280 0 455.5 -206.5t175.5 -533.5v-19q0 -328 -175 -533.5t-455 -205.5q-276 0 -448.5 206t-172.5 533zM220 718q0 -285 135 -460t366 -175q237 0 373.5 174.5t136.5 460.5v21q0 283 -138 458t-373 175q-231 0 -365.5 -175 t-134.5 -458v-21zM667 -143v351h119v-351h-119zM667 1248v346h119v-346h-119z" />
<glyph unicode="&#x47b;" horiz-adv-x="1160" d="M103 524v33q0 239 131 392t347 153q217 0 348 -153t131 -392v-33q0 -240 -130.5 -392.5t-346.5 -152.5q-218 0 -349 152.5t-131 392.5zM223 524q0 -188 95 -316t265 -128q167 0 262 128t95 316v33q0 185 -95.5 314t-263.5 129t-263 -129t-95 -314v-33zM489 -133v337h120 v-337h-120zM489 875v337h120v-337h-120z" />
<glyph unicode="&#x47c;" horiz-adv-x="1737" d="M136 429v575q0 218 106 333t275 110l6 -2v-92q-120 0 -194 -91.5t-74 -257.5v-575q0 -167 74 -258t194 -91q127 0 206.5 86.5t79.5 244.5v473h120v-473q0 -159 78.5 -245t206.5 -86q119 0 193.5 91t74.5 258v575q0 166 -74.5 257.5t-193.5 91.5v92l6 2q169 5 275.5 -110 t106.5 -333v-575q0 -219 -107 -334.5t-281 -115.5q-120 0 -210 53.5t-136 157.5q-46 -104 -136 -157.5t-209 -53.5q-174 0 -280.5 115.5t-106.5 334.5zM600 1590v31q0 102 63 162.5t174 60.5q80 0 215.5 -80.5t245.5 -80.5h28v-85h-30q-129 0 -263 78.5t-192 78.5 q-73 0 -111.5 -41t-38.5 -106v-18h-91zM764 1376l62 121l-1 140h139v-133l-144 -174z" />
<glyph unicode="&#x47d;" horiz-adv-x="1546" d="M114 400v273q0 204 97.5 311.5t254.5 102.5l6 -2v-92q-108 0 -173.5 -83.5t-65.5 -236.5v-273q0 -154 65.5 -237t173.5 -83q114 0 185.5 78.5t71.5 223.5v244h119v-244q0 -145 71 -223.5t186 -78.5q107 0 173 83t66 237v273q0 153 -66 236.5t-173 83.5v92l6 2 q156 5 254 -102.5t98 -311.5v-273q0 -206 -98.5 -313.5t-259.5 -107.5q-109 0 -191.5 47.5t-125.5 142.5q-43 -95 -125.5 -142.5t-190.5 -47.5q-162 0 -260 107.5t-98 313.5zM529 1263v30q0 102 62.5 163t173.5 61q80 0 216 -81t246 -81h28v-85h-30q-128 0 -262.5 78.5 t-193.5 78.5q-72 0 -110.5 -40.5t-38.5 -105.5v-18h-91zM693 1048l61 121v140h139v-133l-144 -174z" />
<glyph unicode="&#x47e;" horiz-adv-x="1756" d="M144 411q0 -211 106.5 -321.5t280.5 -110.5q120 0 210 53.5t136 159.5q44 -106 133 -159.5t207 -53.5q177 0 286.5 110.5t109.5 321.5v1045h-120v-1045q0 -158 -77 -244.5t-199 -86.5q-125 0 -201.5 86t-76.5 245v1045h-122v-1045q0 -158 -79.5 -244.5t-206.5 -86.5 q-120 0 -194 86t-74 245v1045h-119v-1045zM518 1697v81h756l1 -81h-331v-114h-111v114h-315z" />
<glyph unicode="&#x47f;" horiz-adv-x="1577" d="M150 382q0 -197 98 -300t260 -103q107 0 189.5 47.5t126.5 140.5q41 -93 121.5 -140.5t187.5 -47.5q164 0 265.5 103t101.5 300v700h-120v-700q0 -145 -68.5 -223.5t-178.5 -78.5q-111 0 -179.5 78.5t-68.5 223.5v700h-120v-700q0 -145 -71.5 -223.5t-185.5 -78.5 q-107 0 -173 78.5t-66 223.5v700h-119v-700zM443 1375l2 81h755l3 -81h-333v-130h-111v130h-316z" />
<glyph unicode="&#x480;" horiz-adv-x="1253" d="M114 609v237q0 278 149 454.5t392 176.5q236 0 378.5 -125t138.5 -344l-2 -6h-111q0 176 -107.5 274.5t-296.5 98.5q-191 0 -306.5 -147.5t-115.5 -379.5v-239q0 -234 115.5 -381.5t306.5 -147.5h77v-446h-119v347q-227 16 -363 188.5t-136 439.5z" />
<glyph unicode="&#x481;" horiz-adv-x="1046" d="M104 520v42q0 233 124.5 386.5t336.5 153.5q173 0 289 -105t112 -276l-2 -6h-107q0 130 -84.5 207.5t-207.5 77.5q-166 0 -253.5 -126.5t-87.5 -311.5v-42q0 -188 87.5 -314t254.5 -126h74v-446h-119v347q-194 17 -305.5 167t-111.5 372z" />
<glyph unicode="&#x482;" horiz-adv-x="1115" d="M39 569l52 94l293 -171l221 394l-290 171l54 96l291 -171l204 360h131l-240 -422l293 -171l-58 -94l-288 170l-222 -393l289 -172l-54 -95l-291 170l-187 -335h-134l225 398z" />
<glyph unicode="&#x483;" horiz-adv-x="962" d="M156 1216v202h510v108h110v-187h-509v-123h-111z" />
<glyph unicode="&#x484;" horiz-adv-x="1027" d="M137 1310v85h27q110 0 246 81t216 81q110 0 173.5 -61t63.5 -163v-30h-91v18q0 65 -39 105.5t-111 40.5q-59 0 -193 -78.5t-262 -78.5h-30z" />
<glyph unicode="&#x485;" horiz-adv-x="475" d="M126 1500v133h138l-1 -140l62 -121l-57 -46z" />
<glyph unicode="&#x486;" horiz-adv-x="470" d="M126 1372l61 121l-1 140h139v-133l-143 -174z" />
<glyph unicode="&#x488;" horiz-adv-x="2030" d="M49 493q-5 78 51.5 130t152.5 52t152.5 -51.5t52.5 -130.5l-2 -6h-104q0 44 -24 72.5t-75 28.5q-50 0 -73.5 -29t-23.5 -72h-105zM215 -26q-5 78 51.5 130t152.5 52t153 -51.5t53 -130.5l-2 -6h-105q0 44 -24 72.5t-75 28.5q-50 0 -73 -29t-23 -72h-106zM225 996 q-5 79 51.5 130.5t153.5 51.5q96 0 152.5 -51.5t52.5 -130.5l-2 -6h-104q0 43 -24.5 72t-74.5 29t-73.5 -29t-23.5 -72h-106zM798 1273q-5 79 51 130.5t153 51.5q96 0 152.5 -51.5t52.5 -130.5l-2 -6h-104q0 43 -24.5 72t-74.5 29t-73.5 -29t-23.5 -72h-105zM803 -310 q-5 80 51 131t153 51q96 0 152.5 -51t52.5 -131l-2 -6h-104q0 44 -24.5 72.5t-74.5 28.5t-73.5 -28.5t-23.5 -72.5h-105zM1379 -26q-5 78 51.5 130t152.5 52t152.5 -51.5t52.5 -130.5l-2 -6h-104q0 44 -24 72.5t-75 28.5q-50 0 -73.5 -29t-23.5 -72h-105zM1389 996 q-5 78 51.5 130t152.5 52t153 -51.5t53 -130.5l-2 -6h-105q0 44 -24 72.5t-75 28.5q-50 0 -73 -29t-23 -72h-106zM1576 493q-5 78 51.5 130t152.5 52t152.5 -51.5t52.5 -130.5l-2 -6h-104q0 44 -24 72.5t-75 28.5q-50 0 -73.5 -29t-23.5 -72h-105z" />
<glyph unicode="&#x489;" horiz-adv-x="1964" d="M49 545v98l346 -71v-139l-13 -12zM244 -80l294 200l97 -99l-2 -17l-320 -153zM330 1188l65 69l198 -299l-98 -98l-17 2zM869 -413l70 353h137l11 -14l-122 -339h-96zM869 1140l122 338h96l-70 -352h-136zM1319 1002l2 16l321 153l68 -68q-37 -23 -294 -200zM1360 62 l97 99l17 -2l149 -325l-66 -71zM1559 492v139l13 12l333 -124v-98z" />
<glyph unicode="&#x48a;" horiz-adv-x="1562" d="M77 0v88l163 13v1253l-163 13v89h163h119h163v-89l-163 -13v-990l6 -2l828 876v116l-163 13v89h163h119h163v-89l-163 -13v-1253l163 -13v-88h-445v88l163 13v981l-6 2l-828 -879v-104l163 -13v-88h-445zM77 0zM475 1829l2 6h94q0 -77 45 -124t142 -47q94 0 140 48 t46 123h94l2 -6q4 -111 -73 -181.5t-209 -70.5q-134 0 -211 70t-72 182zM1383 -274q47 66 69.5 131t22.5 144v142h119v-140q0 -92 -37.5 -180t-102.5 -149z" />
<glyph unicode="&#x48b;" horiz-adv-x="1372" d="M97 0v88l163 13v879l-163 13v89h282h163v-89l-163 -13v-780l6 -1l578 883h120h163v-89l-163 -13v-879l163 -13v-88h-446v88l163 13v782l-6 2l-578 -885h-282zM97 0zM404 1494l2 6h94q0 -77 45 -124t142 -47q94 0 140 48t46 123h94l2 -6q4 -111 -73 -181.5t-209 -70.5 q-134 0 -211 70t-72 182zM1154 -274q47 66 69.5 131t22.5 144v142h119v-140q0 -92 -37.5 -180t-102.5 -149z" />
<glyph unicode="&#x48c;" horiz-adv-x="1320" d="M10 1070v102h223v182l-163 13v89h282v-284h270v-102h-270v-248h365q230 0 355 -111t125 -298q0 -188 -125.5 -300.5t-354.5 -112.5h-647v88l163 13v969h-223zM352 101h365q181 0 270.5 88.5t89.5 225.5q0 131 -90 218t-270 87h-365v-619zM352 1354v102h163v-89z" />
<glyph unicode="&#x48d;" horiz-adv-x="1134" d="M5 1354v102h212v77l-163 14v88h283v-179h312v-102h-312v-647h310q187 0 291 -98t104 -254q0 -157 -104.5 -256t-290.5 -99h-593v88l163 13v1253h-212zM337 101h310q139 0 207 72t68 180q0 104 -68.5 178t-206.5 74h-310v-504z" />
<glyph unicode="&#x48e;" horiz-adv-x="1285" d="M67 0v88l163 13v1253l-163 13v89h163h451q229 0 354.5 -116.5t125.5 -308.5q0 -194 -125.5 -310t-354.5 -116h-332v-504l163 -13v-88h-445zM349 707h332q180 0 270.5 91.5t90.5 230.5q0 140 -90 232.5t-271 92.5h-332v-647zM755 877l75 67l334 -378l-75 -68z" />
<glyph unicode="&#x48f;" horiz-adv-x="1247" d="M65 -327l163 13v1294l-163 13v89h263l15 -168q55 90 140.5 139t200.5 49q195 0 305 -155.5t110 -414.5v-21q0 -243 -110 -387.5t-303 -144.5q-114 0 -199.5 43.5t-139.5 123.5v-460l163 -13v-89h-445v89zM347 271q41 -89 118.5 -140t193.5 -51q157 0 238.5 118t81.5 313 v21q0 206 -82 336t-240 130q-121 0 -196.5 -57.5t-113.5 -149.5v-520zM675 276l77 66l290 -359l-77 -67z" />
<glyph unicode="&#x490;" horiz-adv-x="1199" d="M69 0v88l163 13v1253l-163 13v89h929l14 354h101v-457h-119v1h-642v-1253l163 -13v-88h-446z" />
<glyph unicode="&#x491;" horiz-adv-x="1048" d="M67 0v88l163 13v879l-163 13v89h163h563l23 291h88v-394h-554v-878l163 -13v-88h-446z" />
<glyph unicode="&#x492;" horiz-adv-x="1209" d="M77 0v88l163 13v602h-149v102h149v549l-163 13v89h1039v-307h-107l-9 205h-641v-549h344v-102h-344v-602l163 -13v-88h-445z" />
<glyph unicode="&#x493;" horiz-adv-x="1050" d="M56 520v101h179v359l-163 13v89h850v-233h-88l-8 130h-472v-358h314v-101h-314v-419l163 -13v-88h-445v88l163 13v419h-179z" />
<glyph unicode="&#x494;" horiz-adv-x="1220" d="M77 0v88l163 13v1253l-163 13v89h1039v-307h-107l-9 205h-641v-527h179q268 0 423 -143.5t155 -427.5q0 -227 -116.5 -382t-334.5 -151l-6 2l-1 89q167 0 252.5 125.5t85.5 316.5q-1 232 -122 348.5t-336 116.5h-179v-620l163 -13v-88h-445z" />
<glyph unicode="&#x495;" horiz-adv-x="1112" d="M67 0v88l163 13v879l-163 13v89h163h668v-18h14v-215h-88l-8 130h-466v-354h155q232 0 374 -116.5t142 -343.5q0 -132 -91 -264.5t-284 -168.5l-32 92q153 35 219 128t68 213q2 174 -108 264t-288 90h-155v-418l163 -13v-88h-446z" />
<glyph unicode="&#x496;" horiz-adv-x="2029" d="M58 0zM58 1432q24 16 54 25.5t64 9.5q70 0 125.5 -33.5t125.5 -133.5l362 -514h163v568l-163 13v89h445v-89l-163 -13v-568h170l362 514q69 100 124.5 133.5t127.5 33.5q33 0 62.5 -9.5t54.5 -25.5l-26 -89q-17 6 -35.5 10t-37.5 4q-50 0 -86 -24t-87 -94l-351 -494 l465 -646l142 -11v-88h-385v88l94 7l-418 584h-176v-578l163 -13v-88h-445v88l163 13v578h-180l-418 -584l95 -7v-88h-386v88l142 11l469 651l-344 489q-52 70 -88 94t-85 24q-20 0 -38.5 -4t-34.5 -10zM1836 79h120v-434h-120v434z" />
<glyph unicode="&#x497;" horiz-adv-x="1767" d="M58 0v88l152 11l373 463l-235 316q-48 62 -83 85.5t-80 23.5q-21 0 -36.5 -4t-32.5 -10l-26 88q27 17 53.5 26.5t59.5 9.5q65 0 120.5 -36t117.5 -122l247 -337h137v378l-163 13v89h446v-89l-163 -13v-378h146l246 337q62 86 117 122t121 36q32 0 59 -9.5t54 -26.5 l-26 -88q-16 6 -32.5 10t-35.5 4q-47 0 -82 -23.5t-82 -85.5l-238 -320l369 -459l152 -11v-88h-224l-397 496h-147v-395l163 -13v-88h-446v88l163 13v395h-146l-397 -496h-224zM58 0zM1594 79h120v-434h-120v434z" />
<glyph unicode="&#x498;" horiz-adv-x="1216" d="M71 0zM76 398l2 6h111q0 -140 108 -232t279 -92q191 0 298.5 84t107.5 227q0 155 -101.5 227.5t-300.5 72.5h-174v103h174q195 0 287 74t92 209q0 134 -97.5 216t-294.5 82q-123 0 -216 -42.5t-150 -111.5l-17 -210h-93v245q67 94 194.5 157.5t290.5 63.5q233 0 368 -105 t135 -299q0 -109 -69.5 -196.5t-192.5 -130.5q140 -39 212 -128t72 -223q0 -195 -145.5 -305.5t-379.5 -110.5q-205 0 -355 108t-145 311zM524 75h120v-434h-120v434z" />
<glyph unicode="&#x499;" horiz-adv-x="1038" d="M84 0zM89 304l2 6h110q0 -96 85 -162t214 -66q141 0 217 58t76 155q0 107 -71 156t-218 49h-164v104h164q142 0 206 49.5t64 142.5q0 89 -67.5 145.5t-206.5 56.5q-117 0 -199 -59t-82 -149h-111l-2 6q-6 133 111 218t283 85q185 0 289.5 -79t104.5 -226q0 -79 -49 -142 t-139 -97q102 -30 154.5 -95t52.5 -163q0 -148 -113.5 -231.5t-299.5 -83.5q-167 0 -291.5 83.5t-119.5 238.5zM452 70h120v-434h-120v434z" />
<glyph unicode="&#x49a;" horiz-adv-x="1417" d="M71 0v88l163 13v1253l-163 13v89h445v-89l-163 -13v-568h199l490 573l-140 8v89h407v-89l-128 -12l-521 -615l562 -640l131 -12v-88h-415v88l138 8l-523 589h-200v-584l163 -13v-88h-445zM71 0zM1233 79h120v-434h-120v434z" />
<glyph unicode="&#x49b;" horiz-adv-x="1245" d="M97 0v88l163 13v879l-163 13v89h446v-89l-163 -13v-378h160l265 337q67 86 120.5 122t117.5 36q32 0 58.5 -9.5t54.5 -26.5l-26 -88q-18 6 -33.5 10t-35.5 4q-44 0 -80 -25t-83 -84l-252 -319l407 -459l142 -12v-88h-211l-438 496h-166v-395l163 -13v-88h-446zM97 0z M1075 79h120v-434h-120v434z" />
<glyph unicode="&#x49c;" horiz-adv-x="1449" d="M70 0v88l163 13v1253l-163 13v89h282h163v-89l-163 -13v-568h145v288h102v-288h84l316 514q62 102 117.5 134.5t129.5 32.5q33 0 62.5 -9.5t54.5 -25.5l-26 -89q-16 6 -34.5 10t-38.5 4q-51 0 -85 -23.5t-83 -94.5l-305 -490l428 -651l137 -10v-88h-223l-435 679h-99 v-274h-102v274h-145v-578l163 -13v-88h-445z" />
<glyph unicode="&#x49d;" horiz-adv-x="1329" d="M90 0v88l163 13v879l-163 13v89h283h163v-89l-163 -13v-378h136v241h102v-241h58l215 337q57 87 112 122.5t122 35.5q32 0 58.5 -9.5t54.5 -26.5l-26 -88q-18 6 -33.5 10t-34.5 4q-48 0 -82 -23t-78 -86l-204 -307l334 -473l123 -10v-88h-211l-333 496h-75v-238h-102v238 h-136v-395l163 -13v-88h-446z" />
<glyph unicode="&#x49e;" horiz-adv-x="1437" d="M29 1091v102h225v161l-163 13v89h445v-89l-163 -13v-161h268v-102h-268v-305h199l490 573l-140 8v89h407v-89l-128 -12l-521 -615l562 -640l131 -12v-88h-415v88l138 8l-523 589h-200v-584l163 -13v-88h-445v88l163 13v990h-225z" />
<glyph unicode="&#x49f;" horiz-adv-x="1214" d="M76 1213v102h169v143l-163 13v89h282v-245h324v-102h-324v-583h127l329 351l-2 5l-99 7v89h381v-89l-126 -12l-370 -393l421 -489l120 -11v-88h-380v88l114 7l-376 432h-139v-426l163 -13v-88h-445v88l163 13v1112h-169z" />
<glyph unicode="&#x4a0;" horiz-adv-x="1786" d="M40 1150v306h693h163v-89l-163 -13v-574h200l385 520q73 99 128 133t124 34q32 0 60 -9.5t54 -25.5l-26 -90q-17 6 -36 10.5t-38 4.5q-50 0 -85.5 -24.5t-87.5 -93.5l-372 -498l563 -641l131 -12v-88h-415v88l138 8l-513 578h-210v-573l163 -13v-88h-445v88l163 13v1253 h-459l-8 -204h-107z" />
<glyph unicode="&#x4a1;" horiz-adv-x="1565" d="M82 776v306h466h120h163v-89l-163 -13v-378h160l265 337q67 86 120.5 122t117.5 36q32 0 58.5 -9.5t54.5 -26.5l-26 -88q-18 6 -33.5 10t-35.5 4q-44 0 -80 -25t-83 -84l-252 -319l407 -459l142 -12v-88h-211l-438 496h-166v-395l163 -13v-88h-446v88l163 13v879l-11 1 v-1h-340l-8 -204h-107z" />
<glyph unicode="&#x4a2;" horiz-adv-x="1537" d="M71 0v88l163 13v1253l-163 13v89h445v-89l-163 -13v-582h828v582l-163 13v89h163h119h163v-89l-163 -13v-1253l163 -13v-88h-445v88l163 13v569h-828v-569l163 -13v-88h-445zM71 0zM1343 79h120v-434h-120v434z" />
<glyph unicode="&#x4a3;" horiz-adv-x="1371" d="M97 0v88l163 13v879l-163 13v89h445v-89l-163 -13v-383h583v383l-163 13v89h163h120h163v-89l-163 -13v-879l163 -13v-88h-446v88l163 13v395h-583v-395l163 -13v-88h-445zM97 0zM1125 79h120v-434h-120v434z" />
<glyph unicode="&#x4a4;" horiz-adv-x="2057" d="M58 0v88l163 13v1253l-163 13v89h163h119h163v-89l-163 -13v-582h828v582l-163 13v89h163h850v-306h-107l-9 204h-615v-1253l163 -13v-88h-445v88l163 13v569h-828v-569l163 -13v-88h-445z" />
<glyph unicode="&#x4a5;" horiz-adv-x="1542" d="M92 0v88l163 13v879l-163 13v89h163h119h163v-89l-163 -13v-383h583v383l-163 13v89h163h548v-306h-106l-9 203h-313v-878l163 -13v-88h-446v88l163 13v395h-583v-395l163 -13v-88h-445z" />
<glyph unicode="&#x4a6;" horiz-adv-x="2101" d="M65 0v88l163 13v1253l-163 13v89h1393v-89l-163 -13v-519h144q268 0 423 -143.5t155 -427.5q0 -227 -116.5 -382t-334.5 -151l-6 2l-1 89q167 0 252.5 125.5t85.5 316.5q-1 232 -122 348.5t-336 116.5h-144v-628l163 -13v-88h-445v88l163 13v1253h-829v-1253l163 -13v-88 h-445z" />
<glyph unicode="&#x4a7;" horiz-adv-x="1818" d="M92 0v88l163 13v879l-163 13v89h163h986v-89l-163 -13v-355h96q236 0 380.5 -116.5t144.5 -343.5q0 -133 -90.5 -265t-283.5 -169l-32 93q152 34 218.5 127.5t67.5 213.5q3 175 -109.5 264.5t-295.5 89.5h-96v-418l163 -13v-88h-446v88l163 13v878h-584v-878l163 -13v-88 h-445z" />
<glyph unicode="&#x4a8;" horiz-adv-x="1534" d="M106 699v151q0 273 125 448.5t323 170.5l6 -1l2 -96q-153 0 -244.5 -149.5t-91.5 -370.5v-153q0 -267 135 -441.5t359 -174.5q52 0 100 7t92 22q-147 97 -227 249t-80 337v201q0 253 107.5 411t286.5 158t289 -157t110 -412v-212q0 -183 -66 -330.5t-187 -241.5 q59 -19 125.5 -28t140.5 -9v-104q-105 0 -200 18.5t-177 54.5q-69 -34 -148.5 -51t-165.5 -17q-281 0 -447.5 203.5t-166.5 516.5zM725 696q0 -176 76.5 -314.5t223.5 -216.5q121 77 187.5 214t66.5 308v214q0 207 -75 335t-205 128q-127 0 -200.5 -130t-73.5 -333v-205z " />
<glyph unicode="&#x4a9;" horiz-adv-x="1259" d="M112 550v77q0 205 94 338.5t241 128.5l6 -2v-95q-94 0 -158 -105.5t-64 -262.5v-79q0 -203 97.5 -335t264.5 -132q37 0 71 5.5t66 17.5q-111 77 -170.5 193.5t-59.5 259.5v106q0 193 82.5 315t219.5 122q136 0 220 -130.5t84 -327.5v-104q0 -127 -42 -235.5t-119 -184.5 q45 -14 95.5 -21t105.5 -7v-104q-84 0 -159.5 14t-141.5 42q-55 -32 -118.5 -48.5t-133.5 -16.5q-214 0 -347.5 162.5t-133.5 408.5zM620 557q0 -130 55.5 -229.5t156.5 -154.5h6q71 56 110 152.5t39 214.5v107q0 148 -51 249t-134 101q-87 0 -134.5 -92t-47.5 -238v-110z " />
<glyph unicode="&#x4aa;" horiz-adv-x="1349" d="M103 0zM103 718v19q0 325 177.5 532.5t464.5 207.5q162 0 289.5 -63.5t195.5 -157.5v-256h-93l-17 221q-58 69 -151 111.5t-215 42.5q-244 0 -388 -177.5t-144 -458.5v-21q0 -281 142.5 -459.5t374.5 -178.5q123 0 223.5 43t157.5 111l17 221h93v-256 q-68 -94 -198.5 -157t-292.5 -63q-280 0 -458 207.5t-178 531.5zM675 75h120v-434h-120v434z" />
<glyph unicode="&#x4ab;" horiz-adv-x="1094" d="M97 0zM97 520v42q0 236 121 388t340 152q125 0 229 -47t169 -128l5 -236h-102l-19 192q-48 54 -119.5 85.5t-162.5 31.5q-174 0 -257.5 -124.5t-83.5 -313.5v-42q0 -192 83 -316t259 -124q119 0 210 68t91 189h106l2 -6q5 -150 -119.5 -251t-289.5 -101 q-220 0 -341 151.5t-121 389.5zM478 69h120v-434h-120v434z" />
<glyph unicode="&#x4ac;" horiz-adv-x="1280" d="M60 0zM60 1149v307h1158v-307h-106l-9 205h-404v-1253l163 -13v-88h-446v88l163 13v1253h-404l-8 -205h-107zM742 79h120v-434h-120v434z" />
<glyph unicode="&#x4ad;" d="M84 0zM84 775v307h947v-307h-106l-9 205h-306v-879l163 -13v-88h-445v88l163 13v879h-292l-8 -205h-107zM653 79h120v-434h-120v434z" />
<glyph unicode="&#x4ae;" horiz-adv-x="1423" d="M55 0zM55 1367v89h400v-89l-140 -10l394 -710l396 710l-140 10v89h401v-89l-124 -10l-474 -825v-431l163 -13v-88h-446v88l163 13v438l-470 818z" />
<glyph unicode="&#x4af;" horiz-adv-x="1085" d="M-6 1065q20 11 52 19t62 8q74 0 115.5 -35.5t73.5 -129.5l223 -656l34 -128h6l38 128l258 711l-136 11v89h358v-89l-99 -8l-362 -954v-446h-120v438l-297 849q-27 74 -52.5 95t-67.5 21q-18 0 -36.5 -5t-32.5 -10zM0 0z" />
<glyph unicode="&#x4b0;" horiz-adv-x="1423" d="M55 1367v89h400v-89l-140 -10l394 -710l396 710l-140 10v89h401v-89l-124 -10l-410 -713h208v-102h-267l-5 -10v-431l163 -13v-88h-446v88l163 13v438l-2 3h-218v102h160l-410 713z" />
<glyph unicode="&#x4b1;" horiz-adv-x="1085" d="M-6 1065q20 11 52 19t62 8q74 0 115.5 -35.5t73.5 -129.5l223 -656l34 -128h6l38 128l258 711l-136 11v89h358v-89l-99 -8l-337 -887h244v-102h-269v-411h-120v411h-223v102h196l-270 774q-27 74 -52.5 95t-67.5 21q-18 0 -36.5 -5t-32.5 -10z" />
<glyph unicode="&#x4b2;" horiz-adv-x="1397" d="M54 0v88l122 10l453 640l-438 619l-122 10v89h400v-89l-139 -6l368 -532l369 532l-137 6v89h399v-89l-122 -10l-437 -619l453 -640l123 -10v-88h-399v88l137 6l-384 553l-385 -553l138 -6v-88h-399zM54 0zM1226 79h120v-434h-120v434z" />
<glyph unicode="&#x4b3;" horiz-adv-x="1192" d="M73 0v88l121 11l342 452l-326 431l-122 11v89h367v-89l-112 -6l258 -347l259 348l-111 5v89h367v-89l-121 -11l-326 -431l341 -452l122 -11v-88h-366v88l111 5l-275 368l-274 -368l111 -5v-88h-366zM73 0zM1012 79h120v-434h-120v434z" />
<glyph unicode="&#x4b4;" horiz-adv-x="1811" d="M77 1149v306h254v1h282h163v-1h249v-306h-106l-9 205h-297v-1253h829v1253l-163 13v89h163h119h163v-89l-163 -13v-1253h159v-452h-118v351h-1271v88l163 13v1253h-302l-8 -205h-107z" />
<glyph unicode="&#x4b5;" horiz-adv-x="1510" d="M50 775v307h856v-307h-107l-9 205h-245v-879h591v981h121h163v-89l-163 -13v-879h126l-9 -422h-110v321h-1002v88l163 13v879h-260l-8 -205h-107z" />
<glyph unicode="&#x4b6;" horiz-adv-x="1491" d="M59 0zM59 1367v89h282h163v-89l-163 -13v-301q0 -186 89 -265.5t275 -79.5q102 0 200 14.5t199 43.5v588l-163 13v89h283h163v-89l-163 -13v-1253l163 -13v-88h-446v88l163 13v563q-101 -29 -196 -43.5t-203 -14.5q-240 0 -361.5 105t-121.5 342v301zM1267 79h120v-434 h-120v434z" />
<glyph unicode="&#x4b7;" horiz-adv-x="1335" d="M65 0zM65 994v88h282h163v-88l-163 -13v-173q0 -170 69.5 -237t224.5 -67q72 1 145.5 15t137.5 37v424l-163 13v89h445v-89l-163 -13v-879l163 -13v-88h-445v88l163 13v354q-69 -25 -142 -39.5t-141 -14.5q-209 0 -311 93.5t-102 313.5v173zM1086 79h120v-434h-120v434z " />
<glyph unicode="&#x4b8;" horiz-adv-x="1491" d="M59 1367v89h282h163v-89l-163 -13v-301q0 -186 89 -265.5t275 -79.5q102 0 200 14.5t199 43.5v588l-163 13v89h283h163v-89l-163 -13v-1253l163 -13v-88h-446v88l163 13v563q-101 -29 -196 -43.5t-203 -14.5q-240 0 -361.5 105t-121.5 342v301zM648 361v691h102v-691 h-102z" />
<glyph unicode="&#x4b9;" horiz-adv-x="1333" d="M107 994v88h282h163v-88l-163 -13v-173q0 -170 69.5 -237t224.5 -67q72 1 145.5 15t137.5 37v424l-163 13v89h445v-89l-163 -13v-879l163 -13v-88h-445v88l163 13v354q-69 -25 -142 -39.5t-141 -14.5q-209 0 -311 93.5t-102 313.5v173zM608 209v561h102v-561h-102z" />
<glyph unicode="&#x4ba;" horiz-adv-x="1424" d="M41 0v89l163 13v1253l-163 13v88h163h120h163v-88l-163 -13v-563q100 28 195 43t204 15q239 0 361 -105.5t122 -341.5v-301l163 -13v-89h-445v89l163 13v301q0 185 -89.5 265t-274.5 80q-103 0 -201 -15.5t-198 -43.5v-587l163 -13v-89h-446z" />
<glyph unicode="&#x4bb;" horiz-adv-x="1298" d="M62 0v88l163 13v1357l-163 13v89h282v-663q54 97 144 151t210 54q171 0 262.5 -106t91.5 -329v-566l163 -13v-88h-446v88l163 13v568q0 176 -69.5 252.5t-191.5 76.5q-123 0 -205.5 -64.5t-121.5 -171.5v-661l163 -13v-88h-445zM62 0z" />
<glyph unicode="&#x4bc;" horiz-adv-x="1531" d="M65 1072l2 5h95q0 -105 50.5 -168t150.5 -72l6 2v22q0 267 153 440.5t383 173.5q254 0 397 -171t143 -465v-106h-956v-153q0 -223 118.5 -362.5t357.5 -139.5q122 0 218 33t171 88l39 -89q-68 -57 -170 -95t-258 -38q-282 0 -439 165.5t-157 437.5v155 q-150 15 -229 103.5t-75 233.5zM489 826h836v42q0 222 -107 363t-313 141q-192 0 -304 -146t-112 -365v-35z" />
<glyph unicode="&#x4bd;" horiz-adv-x="1283" d="M37 859h101q0 -78 26 -130t80 -73q26 197 153.5 321.5t296.5 124.5q199 0 313 -126t114 -336v-102h-764v-29q0 -182 97.5 -305.5t255.5 -123.5q111 0 190 31t135 89l51 -82q-61 -64 -154 -101.5t-222 -37.5q-204 0 -338 149.5t-134 380.5v50q-99 22 -150 99t-51 201z M366 644l2 -5h634v30q0 141 -83 236t-225 95q-132 0 -222.5 -101.5t-105.5 -254.5z" />
<glyph unicode="&#x4be;" horiz-adv-x="1531" d="M61 0zM65 1072l2 5h95q0 -105 50.5 -168t150.5 -72l6 2v22q0 267 153 440.5t383 173.5q254 0 397 -171t143 -465v-106h-956v-153q0 -223 118.5 -362.5t357.5 -139.5q122 0 218 33t171 88l39 -89q-68 -57 -170 -95t-258 -38q-282 0 -439 165.5t-157 437.5v155 q-150 15 -229 103.5t-75 233.5zM489 826h836v42q0 222 -107 363t-313 141q-192 0 -304 -146t-112 -365v-35zM869 54h120v-434h-120v434z" />
<glyph unicode="&#x4bf;" horiz-adv-x="1283" d="M37 0zM37 859h101q0 -78 26 -130t80 -73q26 197 153.5 321.5t296.5 124.5q199 0 313 -126t114 -336v-102h-764v-29q0 -182 97.5 -305.5t255.5 -123.5q111 0 190 31t135 89l51 -82q-61 -64 -154 -101.5t-222 -37.5q-204 0 -338 149.5t-134 380.5v50q-99 22 -150 99 t-51 201zM366 644l2 -5h634v30q0 141 -83 236t-225 95q-132 0 -222.5 -101.5t-105.5 -254.5zM641 78h120v-434h-120v434z" />
<glyph unicode="&#x4c0;" horiz-adv-x="627" d="M91 0v88l163 13v1253l-163 13v89h446v-89l-163 -13v-1253l163 -13v-88h-446zM91 0z" />
<glyph unicode="&#x4c1;" horiz-adv-x="2029" d="M58 0zM58 1432q24 16 54 25.5t64 9.5q70 0 125.5 -33.5t125.5 -133.5l362 -514h163v568l-163 13v89h445v-89l-163 -13v-568h170l362 514q69 100 124.5 133.5t127.5 33.5q33 0 62.5 -9.5t54.5 -25.5l-26 -89q-17 6 -35.5 10t-37.5 4q-50 0 -86 -24t-87 -94l-351 -494 l465 -646l142 -11v-88h-385v88l94 7l-418 584h-176v-578l163 -13v-88h-445v88l163 13v578h-180l-418 -584l95 -7v-88h-386v88l142 11l469 651l-344 489q-52 70 -88 94t-85 24q-20 0 -38.5 -4t-34.5 -10zM727 1828l2 6h94q0 -77 45 -124t142 -47q94 0 140 48t46 123h94l2 -6 q4 -111 -73 -181.5t-209 -70.5q-134 0 -211 70t-72 182z" />
<glyph unicode="&#x4c2;" horiz-adv-x="1767" d="M58 0v88l152 11l373 463l-235 316q-48 62 -83 85.5t-80 23.5q-21 0 -36.5 -4t-32.5 -10l-26 88q27 17 53.5 26.5t59.5 9.5q65 0 120.5 -36t117.5 -122l247 -337h137v378l-163 13v89h446v-89l-163 -13v-378h146l246 337q62 86 117 122t121 36q32 0 59 -9.5t54 -26.5 l-26 -88q-16 6 -32.5 10t-35.5 4q-47 0 -82 -23.5t-82 -85.5l-238 -320l369 -459l152 -11v-88h-224l-397 496h-147v-395l163 -13v-88h-446v88l163 13v395h-146l-397 -496h-224zM58 0zM598 1494l2 6h94q0 -77 45 -124t142 -47q94 0 140 48t46 123h94l2 -6q4 -111 -73 -181.5 t-209 -70.5q-134 0 -211 70t-72 182z" />
<glyph unicode="&#x4c3;" horiz-adv-x="1397" d="M70 0v88l163 13v1253l-163 13v89h445v-89l-163 -13v-554h177l551 656h202v-89l-143 -12l-467 -555q265 -2 418.5 -145.5t153.5 -425.5q0 -227 -116.5 -382t-333.5 -151l-6 2l-1 89q166 0 252 125.5t86 316.5q-1 232 -122.5 348.5t-336.5 116.5h-314v-593l163 -13v-88 h-445z" />
<glyph unicode="&#x4c4;" horiz-adv-x="1263" d="M90 0v88l163 13v879l-163 13v89h446v-89l-163 -13v-378h135l408 480h209v-89l-146 -12l-332 -383q203 -19 322 -129t119 -314q0 -130 -91 -259t-283 -165l-33 93q152 34 219 124.5t69 206.5q2 173 -109 257t-297 84h-190v-395l163 -13v-88h-446z" />
<glyph unicode="&#x4c5;" horiz-adv-x="1507" d="M57 0v101h37q147 0 207 145.5t80 550.5l31 557l-157 13v89h1174v-89l-163 -13v-1253l163 -13v-88h-446v88l163 13v1253h-615l-31 -557q-21 -441 -103.5 -619t-298.5 -178h-41zM57 0zM1337 -274q47 66 69.5 131t22.5 144v142h119v-140q0 -92 -37.5 -180t-102.5 -149z" />
<glyph unicode="&#x4c6;" horiz-adv-x="1294" d="M69 0l1 107l38 1q110 0 159.5 110.5t49.5 385.5v376l-163 13v89h1024v-89l-163 -13v-879l163 -13v-88h-446v88l163 13v878h-458v-375q0 -318 -74.5 -461t-250.5 -143h-43zM69 0zM1086 -274q47 66 69.5 131t22.5 144v142h119v-140q0 -92 -37.5 -180t-102.5 -149z" />
<glyph unicode="&#x4c7;" horiz-adv-x="1548" d="M77 0v88l163 13v1253l-163 13v89h282h163v-89l-163 -13v-582h828v582l-163 13v89h445v-89l-163 -13v-1443q0 -167 -80 -257.5t-223 -90.5q-31 0 -57.5 5t-55.5 14l14 99q15 -5 46 -10.5t53 -5.5q87 0 135.5 65t48.5 181v759h-828v-569l163 -13v-88h-445z" />
<glyph unicode="&#x4c8;" horiz-adv-x="1344" d="M90 0v88l163 13v-101h-163zM90 993v89h282h163v-89l-163 -13v-383h583v383l-163 13v89h163h120h163v-89l-163 -13v-1069q0 -167 -80.5 -257.5t-223.5 -90.5q-31 0 -57 5t-55 14l14 99q14 -5 45 -10.5t53 -5.5q87 0 135.5 64.5t48.5 181.5v585h-583v-395l163 -13v-88h-282 v980z" />
<glyph unicode="&#x4c9;" horiz-adv-x="1537" d="M71 0v88l163 13v1253l-163 13v89h445v-89l-163 -13v-582h828v582l-163 13v89h163h119h163v-89l-163 -13v-1253l163 -13v-88h-445v88l163 13v569h-828v-569l163 -13v-88h-445zM71 0zM1371 -274q47 66 69.5 131t22.5 144v142h119v-140q0 -92 -37.5 -180t-102.5 -149z" />
<glyph unicode="&#x4ca;" horiz-adv-x="1371" d="M97 0v88l163 13v879l-163 13v89h445v-89l-163 -13v-383h583v383l-163 13v89h163h120h163v-89l-163 -13v-879l163 -13v-88h-446v88l163 13v395h-583v-395l163 -13v-88h-445zM97 0zM1153 -274q47 66 69.5 131t22.5 144v142h119v-140q0 -92 -37.5 -180t-102.5 -149z" />
<glyph unicode="&#x4cb;" horiz-adv-x="1491" d="M59 0zM59 1367v89h282h163v-89l-163 -13v-301q0 -186 89 -265.5t275 -79.5q102 0 200 14.5t199 43.5v588l-163 13v89h283h163v-89l-163 -13v-1253l163 -13v-88h-446v88l163 13v563q-101 -29 -196 -43.5t-203 -14.5q-240 0 -361.5 105t-121.5 342v301zM941 79h120v-434 h-120v434z" />
<glyph unicode="&#x4cc;" horiz-adv-x="1335" d="M65 0zM65 994v88h282h163v-88l-163 -13v-173q0 -170 69.5 -237t224.5 -67q72 1 145.5 15t137.5 37v424l-163 13v89h445v-89l-163 -13v-879l163 -13v-88h-445v88l163 13v354q-69 -25 -142 -39.5t-141 -14.5q-209 0 -311 93.5t-102 313.5v173zM777 79h120v-434h-120v434z " />
<glyph unicode="&#x4cd;" horiz-adv-x="1861" d="M71 0v88l163 13v1253l-163 13v89h163h157l535 -1282h6l537 1282h321v-89l-163 -13v-1253l163 -13v-88h-445v88l163 13v542l10 637l-6 2l-541 -1282h-83l-540 1276l-6 -1l11 -632v-542l163 -13v-88h-445zM71 0zM1698 -274q47 66 69.5 131t22.5 144v142h119v-140 q0 -92 -37.5 -180t-102.5 -149z" />
<glyph unicode="&#x4ce;" horiz-adv-x="1702" d="M97 0v88l163 13v879l-163 13v89h163h156l426 -914h6l427 914h148h163v-89l-163 -13v-879l163 -13v-88h-446v88l163 13v770l-6 2l-409 -873h-85l-418 895l-6 -1v-793l163 -13v-88h-445zM97 0zM1494 -274q47 66 69.5 131t22.5 144v142h119v-140q0 -92 -37.5 -180 t-102.5 -149z" />
<glyph unicode="&#x4cf;" horiz-adv-x="627" d="M91 0v88l163 13v1253l-163 13v89h446v-89l-163 -13v-1253l163 -13v-88h-446zM91 0z" />
<glyph unicode="&#x4d0;" horiz-adv-x="1485" d="M55 0v88l107 8l517 1360h113l512 -1360l109 -8v-88h-359v88l127 10l-120 326h-654l-121 -326l127 -10v-88h-358zM55 0zM447 531h575l-283 770h-6zM447 1827l2 6h94q0 -77 45 -124t142 -47q94 0 140 48t46 123h94l2 -6q4 -111 -73 -181.5t-209 -70.5q-134 0 -211 70 t-72 182z" />
<glyph unicode="&#x4d1;" d="M104 0zM104 283q0 150 129 238t350 88h239v143q0 116 -74.5 182t-208.5 66q-90 0 -164.5 -24.5t-124.5 -66.5l-10 -145h-99l1 208q75 58 179.5 94t222.5 36q179 0 288 -91t109 -261v-532q0 -33 1.5 -63.5t6.5 -59.5l108 -7v-88h-213q-12 55 -17 95t-5 81 q-60 -85 -160 -141t-225 -56q-159 0 -246 82t-87 222zM223 279q0 -87 60.5 -140.5t166.5 -53.5q130 0 229 60t143 155v217h-241q-163 0 -260.5 -67.5t-97.5 -170.5zM257 1506l2 6h94q0 -77 45 -124t142 -47q94 0 140 48t46 123h94l2 -6q4 -111 -73 -181.5t-209 -70.5 q-134 0 -211 70t-72 182z" />
<glyph unicode="&#x4d2;" horiz-adv-x="1485" d="M55 0v88l107 8l517 1360h113l512 -1360l109 -8v-88h-359v88l127 10l-120 326h-654l-121 -326l127 -10v-88h-358zM55 0zM406 1639v157h174v-157h-174zM447 531h575l-283 770h-6zM876 1639v157h173v-157h-173z" />
<glyph unicode="&#x4d3;" d="M104 0zM104 283q0 150 129 238t350 88h239v143q0 116 -74.5 182t-208.5 66q-90 0 -164.5 -24.5t-124.5 -66.5l-10 -145h-99l1 208q75 58 179.5 94t222.5 36q179 0 288 -91t109 -261v-532q0 -33 1.5 -63.5t6.5 -59.5l108 -7v-88h-213q-12 55 -17 95t-5 81 q-60 -85 -160 -141t-225 -56q-159 0 -246 82t-87 222zM216 1318v157h174v-157h-174zM223 279q0 -87 60.5 -140.5t166.5 -53.5q130 0 229 60t143 155v217h-241q-163 0 -260.5 -67.5t-97.5 -170.5zM686 1318v157h173v-157h-173z" />
<glyph unicode="&#x4d4;" horiz-adv-x="2058" d="M51 0v88l130 10l822 1358h864v-307h-107l-9 205h-578l23 -545h589v-102h-585l26 -606h587l9 205h106v-306h-980v88l158 12l-12 289h-597l-172 -293l106 -8v-88h-380zM51 0zM564 502h526l-35 839l-6 1l-15 -44z" />
<glyph unicode="&#x4d5;" horiz-adv-x="1786" d="M97 0zM97 293q0 158 113 248.5t325 90.5h263v88q0 134 -63.5 207t-187.5 73q-135 0 -213 -67t-78 -168l-110 12l-2 6q-5 138 106 228.5t297 90.5q125 0 213 -54t129 -157q61 99 156 155t210 56q200 0 311.5 -124t111.5 -340v-100h-755v-29q0 -191 90 -310t272 -119 q103 0 181 32.5t142 86.5l48 -87q-60 -55 -148.5 -94t-222.5 -39q-138 0 -241 55.5t-163 157.5q-49 -87 -159.5 -150t-269.5 -63q-170 0 -262.5 84.5t-92.5 229.5zM217 289q0 -97 64.5 -153.5t187.5 -56.5q102 0 197.5 53.5t131.5 115.5v288h-261q-155 0 -237.5 -71 t-82.5 -176zM931 641l2 -5h625v31q0 146 -77 239.5t-226 93.5q-138 0 -224.5 -101.5t-99.5 -257.5z" />
<glyph unicode="&#x4d6;" horiz-adv-x="1286" d="M71 0v88l163 13v1253l-163 13v89h163h917v-320h-106l-9 218h-683v-547h597v-102h-597v-604h688l9 218h106v-319h-1085zM71 0zM347 1829l2 6h94q0 -77 45 -124t142 -47q94 0 140 48t46 123h94l2 -6q4 -111 -73 -181.5t-209 -70.5q-134 0 -211 70t-72 182z" />
<glyph unicode="&#x4d7;" horiz-adv-x="1102" d="M102 0zM102 509v55q0 232 133.5 385t322.5 153q199 0 313 -126t114 -336v-102h-764v-29q0 -182 97.5 -305.5t255.5 -123.5q111 0 190 31t135 89l51 -82q-61 -64 -154 -101.5t-222 -37.5q-204 0 -338 149.5t-134 380.5zM230 644l2 -5h634v30q0 141 -83 236t-225 95 q-132 0 -222.5 -101.5t-105.5 -254.5zM275 1506l2 6h94q0 -77 45 -124t142 -47q94 0 140 48t46 123h94l2 -6q4 -111 -73 -181.5t-209 -70.5q-134 0 -211 70t-72 182z" />
<glyph unicode="&#x4d8;" horiz-adv-x="1394" d="M78 614v117h1066v91q0 245 -126.5 399t-380.5 154q-129 0 -230 -33.5t-179 -87.5l-39 89q71 56 177.5 95t270.5 39q296 0 461 -180.5t165 -474.5v-168q0 -296 -165 -485.5t-412 -189.5q-287 0 -447.5 170t-160.5 465zM197 585q0 -224 124 -364.5t365 -140.5 q206 0 329 158t124 395l-3 5h-939v-53z" />
<glyph unicode="&#x4d9;" horiz-adv-x="1070" d="M94 0zM94 441v102h764v29q0 182 -97.5 305.5t-254.5 123.5q-113 0 -191.5 -31.5t-133.5 -89.5l-51 83q60 63 153 101t223 38q203 0 337.5 -150t134.5 -380v-55q0 -233 -134 -385t-322 -152q-200 0 -314 125t-114 336zM214 412q0 -142 82.5 -236.5t225.5 -94.5 q131 0 220.5 100.5t105.5 254.5l-2 5h-632v-29z" />
<glyph unicode="&#x4da;" horiz-adv-x="1394" d="M78 0zM78 614v117h1066v91q0 245 -126.5 399t-380.5 154q-129 0 -230 -33.5t-179 -87.5l-39 89q71 56 177.5 95t270.5 39q296 0 461 -180.5t165 -474.5v-168q0 -296 -165 -485.5t-412 -189.5q-287 0 -447.5 170t-160.5 465zM197 585q0 -224 124 -364.5t365 -140.5 q206 0 329 158t124 395l-3 5h-939v-53zM357 1614v157h174v-157h-174zM827 1614v157h173v-157h-173z" />
<glyph unicode="&#x4db;" horiz-adv-x="1070" d="M94 0zM94 441v102h764v29q0 182 -97.5 305.5t-254.5 123.5q-113 0 -191.5 -31.5t-133.5 -89.5l-51 83q60 63 153 101t223 38q203 0 337.5 -150t134.5 -380v-55q0 -233 -134 -385t-322 -152q-200 0 -314 125t-114 336zM206 1320v157h174v-157h-174zM214 412 q0 -142 82.5 -236.5t225.5 -94.5q131 0 220.5 100.5t105.5 254.5l-2 5h-632v-29zM676 1320v157h173v-157h-173z" />
<glyph unicode="&#x4dc;" horiz-adv-x="2029" d="M58 0zM58 1432q24 16 54 25.5t64 9.5q70 0 125.5 -33.5t125.5 -133.5l362 -514h163v568l-163 13v89h445v-89l-163 -13v-568h170l362 514q69 100 124.5 133.5t127.5 33.5q33 0 62.5 -9.5t54.5 -25.5l-26 -89q-17 6 -35.5 10t-37.5 4q-50 0 -86 -24t-87 -94l-351 -494 l465 -646l142 -11v-88h-385v88l94 7l-418 584h-176v-578l163 -13v-88h-445v88l163 13v578h-180l-418 -584l95 -7v-88h-386v88l142 11l469 651l-344 489q-52 70 -88 94t-85 24q-20 0 -38.5 -4t-34.5 -10zM686 1640v157h174v-157h-174zM1156 1640v157h173v-157h-173z" />
<glyph unicode="&#x4dd;" horiz-adv-x="1767" d="M58 0v88l152 11l373 463l-235 316q-48 62 -83 85.5t-80 23.5q-21 0 -36.5 -4t-32.5 -10l-26 88q27 17 53.5 26.5t59.5 9.5q65 0 120.5 -36t117.5 -122l247 -337h137v378l-163 13v89h446v-89l-163 -13v-378h146l246 337q62 86 117 122t121 36q32 0 59 -9.5t54 -26.5 l-26 -88q-16 6 -32.5 10t-35.5 4q-47 0 -82 -23.5t-82 -85.5l-238 -320l369 -459l152 -11v-88h-224l-397 496h-147v-395l163 -13v-88h-446v88l163 13v395h-146l-397 -496h-224zM58 0zM557 1306v157h174v-157h-174zM1027 1306v157h173v-157h-173z" />
<glyph unicode="&#x4de;" horiz-adv-x="1216" d="M71 0zM76 398l2 6h111q0 -140 108 -232t279 -92q191 0 298.5 84t107.5 227q0 155 -101.5 227.5t-300.5 72.5h-174v103h174q195 0 287 74t92 209q0 134 -97.5 216t-294.5 82q-123 0 -216 -42.5t-150 -111.5l-17 -210h-93v245q67 94 194.5 157.5t290.5 63.5q233 0 368 -105 t135 -299q0 -109 -69.5 -196.5t-192.5 -130.5q140 -39 212 -128t72 -223q0 -195 -145.5 -305.5t-379.5 -110.5q-205 0 -355 108t-145 311zM270 1651v157h174v-157h-174zM740 1651v157h173v-157h-173z" />
<glyph unicode="&#x4df;" horiz-adv-x="1038" d="M84 0zM89 304l2 6h110q0 -96 85 -162t214 -66q141 0 217 58t76 155q0 107 -71 156t-218 49h-164v104h164q142 0 206 49.5t64 142.5q0 89 -67.5 145.5t-206.5 56.5q-117 0 -199 -59t-82 -149h-111l-2 6q-6 133 111 218t283 85q185 0 289.5 -79t104.5 -226q0 -79 -49 -142 t-139 -97q102 -30 154.5 -95t52.5 -163q0 -148 -113.5 -231.5t-299.5 -83.5q-167 0 -291.5 83.5t-119.5 238.5zM183 1318v157h174v-157h-174zM653 1318v157h173v-157h-173z" />
<glyph unicode="&#x4e0;" horiz-adv-x="1109" d="M83 398l2 6h112q0 -140 94 -232t245 -92q161 0 252 84t91 227q0 181 -89.5 265t-265.5 84h-122v102l433 507l-2 5h-610l-8 -205h-107v307h869l2 -93l-446 -527q227 -2 346 -115.5t119 -325.5q0 -195 -128.5 -305.5t-333.5 -110.5q-187 0 -322.5 108t-130.5 311z" />
<glyph unicode="&#x4e1;" horiz-adv-x="1114" d="M81 23l2 6h112q0 -138 94 -230t245 -92q161 0 252 84t91 225q0 180 -96.5 264.5t-275.5 84.5h-106v103l424 506l-2 5h-600l-8 -204h-107v307h869l2 -93l-439 -529q218 -8 338 -122t120 -318q0 -192 -128.5 -303.5t-333.5 -111.5q-186 0 -322 108.5t-131 309.5z" />
<glyph unicode="&#x4e2;" horiz-adv-x="1562" d="M77 0v88l163 13v1253l-163 13v89h163h119h163v-89l-163 -13v-990l6 -2l828 876v116l-163 13v89h163h119h163v-89l-163 -13v-1253l163 -13v-88h-445v88l163 13v981l-6 2l-828 -879v-104l163 -13v-88h-445zM77 0zM432 1694v97h670v-97h-670z" />
<glyph unicode="&#x4e3;" horiz-adv-x="1372" d="M97 0v88l163 13v879l-163 13v89h282h163v-89l-163 -13v-780l6 -1l578 883h120h163v-89l-163 -13v-879l163 -13v-88h-446v88l163 13v782l-6 2l-578 -885h-282zM97 0zM361 1359v97h670v-97h-670z" />
<glyph unicode="&#x4e4;" horiz-adv-x="1562" d="M77 0v88l163 13v1253l-163 13v89h163h119h163v-89l-163 -13v-990l6 -2l828 876v116l-163 13v89h163h119h163v-89l-163 -13v-1253l163 -13v-88h-445v88l163 13v981l-6 2l-828 -879v-104l163 -13v-88h-445zM77 0zM434 1641v157h174v-157h-174zM904 1641v157h173v-157h-173z " />
<glyph unicode="&#x4e5;" horiz-adv-x="1372" d="M97 0v88l163 13v879l-163 13v89h282h163v-89l-163 -13v-780l6 -1l578 883h120h163v-89l-163 -13v-879l163 -13v-88h-446v88l163 13v782l-6 2l-578 -885h-282zM97 0zM363 1306v157h174v-157h-174zM833 1306v157h173v-157h-173z" />
<glyph unicode="&#x4e6;" horiz-adv-x="1468" d="M106 0zM106 718v19q0 327 172 533.5t448 206.5q280 0 455.5 -206.5t175.5 -533.5v-19q0 -328 -175 -533.5t-455 -205.5q-276 0 -448.5 206t-172.5 533zM226 718q0 -285 135 -460t366 -175q237 0 373.5 174.5t136.5 460.5v21q0 283 -138 458t-373 175q-231 0 -365.5 -175 t-134.5 -458v-21zM401 1651v157h174v-157h-174zM871 1651v157h173v-157h-173z" />
<glyph unicode="&#x4e7;" horiz-adv-x="1152" d="M97 0zM97 524v33q0 239 131 392t347 153q217 0 348 -153t131 -392v-33q0 -240 -130.5 -392.5t-346.5 -152.5q-218 0 -349 152.5t-131 392.5zM217 524q0 -188 95 -316t265 -128q167 0 262 128t95 316v33q0 185 -95.5 314t-263.5 129t-263 -129t-95 -314v-33zM250 1317v157 h174v-157h-174zM720 1317v157h173v-157h-173z" />
<glyph unicode="&#x4e8;" horiz-adv-x="1386" d="M100 0zM100 718v19q0 327 172 533.5t448 206.5q280 0 455.5 -206.5t175.5 -533.5v-19q0 -328 -175 -533.5t-455 -205.5q-276 0 -448.5 206t-172.5 533zM226 668q6 -263 139.5 -424t355.5 -161q227 0 361.5 160.5t142.5 424.5l-2 5h-995zM226 779l2 -5h995l2 5 q-6 265 -141.5 429t-363.5 164q-224 0 -357 -164t-137 -429z" />
<glyph unicode="&#x4e9;" horiz-adv-x="1180" d="M103 0zM103 524v33q0 239 131 392t347 153q217 0 348 -153t131 -392v-33q0 -240 -130.5 -392.5t-346.5 -152.5q-218 0 -349 152.5t-131 392.5zM229 487q3 -174 97 -290.5t257 -116.5q159 0 252.5 117t98.5 290l-2 5h-701zM229 599l2 -5h701l2 5q-7 169 -100.5 285 t-252.5 116q-160 0 -253.5 -116.5t-98.5 -284.5z" />
<glyph unicode="&#x4ea;" horiz-adv-x="1386" d="M100 0zM100 718v19q0 327 172 533.5t448 206.5q280 0 455.5 -206.5t175.5 -533.5v-19q0 -328 -175 -533.5t-455 -205.5q-276 0 -448.5 206t-172.5 533zM226 668q6 -263 139.5 -424t355.5 -161q227 0 361.5 160.5t142.5 424.5l-2 5h-995zM226 779l2 -5h995l2 5 q-6 265 -141.5 429t-363.5 164q-224 0 -357 -164t-137 -429zM400 1637v157h174v-157h-174zM870 1637v157h173v-157h-173z" />
<glyph unicode="&#x4eb;" horiz-adv-x="1180" d="M103 0zM103 524v33q0 239 131 392t347 153q217 0 348 -153t131 -392v-33q0 -240 -130.5 -392.5t-346.5 -152.5q-218 0 -349 152.5t-131 392.5zM229 487q3 -174 97 -290.5t257 -116.5q159 0 252.5 117t98.5 290l-2 5h-701zM229 599l2 -5h701l2 5q-7 169 -100.5 285 t-252.5 116q-160 0 -253.5 -116.5t-98.5 -284.5zM261 1347v157h174v-157h-174zM731 1347v157h173v-157h-173z" />
<glyph unicode="&#x4ec;" horiz-adv-x="1268" d="M89 0zM89 199v257h93l17 -221q55 -69 155.5 -111.5t225.5 -42.5q224 0 356 168t136 438l-3 5h-595v101h594l2 5q-10 258 -143 417.5t-362 159.5q-123 0 -216.5 -42.5t-149.5 -111.5l-17 -221h-93v257q67 93 195 156.5t290 63.5q284 0 453 -205.5t169 -533.5v-20 q0 -327 -169.5 -532.5t-446.5 -205.5q-163 0 -293.5 62.5t-197.5 156.5zM297 1652v157h174v-157h-174zM767 1652v157h173v-157h-173z" />
<glyph unicode="&#x4ed;" horiz-adv-x="1077" d="M115 0zM121 331l2 6h105q0 -121 91 -189t211 -68q168 0 251.5 116t86.5 295l-3 5h-494v101h493l2 5q-4 171 -87.5 284.5t-247.5 113.5q-92 0 -164 -31.5t-118 -85.5l-20 -192h-101l4 236q65 81 168.5 128t230.5 47q218 0 339 -152t121 -388v-42q0 -238 -121 -389.5 t-340 -151.5q-166 0 -290.5 101t-118.5 251zM213 1317v157h174v-157h-174zM683 1317v157h173v-157h-173z" />
<glyph unicode="&#x4ee;" horiz-adv-x="1398" d="M42 0zM42 1367v89h382v-89l-122 -9l357 -698l63 -147h6l372 844l-128 10v89h384v-89l-116 -9l-513 -1110q-58 -122 -132 -195.5t-220 -73.5q-23 0 -53 3.5t-40 7.5l11 97q11 -3 37.5 -5t46.5 -2q87 0 137.5 50t97.5 145l53 107l-501 975zM387 1694v97h670v-97h-670z" />
<glyph unicode="&#x4ef;" horiz-adv-x="1174" d="M46 0zM46 993v89h372v-89l-129 -10l264 -690l38 -130h6l296 820l-132 10v89h374v-89l-110 -9l-437 -1157q-42 -110 -109 -187t-196 -77q-21 0 -51 4.5t-44 9.5l14 100q12 -2 38.5 -4.5t37.5 -2.5q79 0 125 55t81 143l56 145l-384 971zM265 1359v97h670v-97h-670z" />
<glyph unicode="&#x4f0;" horiz-adv-x="1398" d="M42 0zM42 1367v89h382v-89l-122 -9l357 -698l63 -147h6l372 844l-128 10v89h384v-89l-116 -9l-513 -1110q-58 -122 -132 -195.5t-220 -73.5q-23 0 -53 3.5t-40 7.5l11 97q11 -3 37.5 -5t46.5 -2q87 0 137.5 50t97.5 145l53 107l-501 975zM389 1641v157h174v-157h-174z M859 1641v157h173v-157h-173z" />
<glyph unicode="&#x4f1;" horiz-adv-x="1174" d="M46 0zM46 993v89h372v-89l-129 -10l264 -690l38 -130h6l296 820l-132 10v89h374v-89l-110 -9l-437 -1157q-42 -110 -109 -187t-196 -77q-21 0 -51 4.5t-44 9.5l14 100q12 -2 38.5 -4.5t37.5 -2.5q79 0 125 55t81 143l56 145l-384 971zM267 1306v157h174v-157h-174z M737 1306v157h173v-157h-173z" />
<glyph unicode="&#x4f2;" horiz-adv-x="1398" d="M42 0zM42 1367v89h382v-89l-122 -9l357 -698l63 -147h6l372 844l-128 10v89h384v-89l-116 -9l-513 -1110q-58 -122 -132 -195.5t-220 -73.5q-23 0 -53 3.5t-40 7.5l11 97q11 -3 37.5 -5t46.5 -2q87 0 137.5 50t97.5 145l53 107l-501 975zM488 1606l213 261h133l3 -6 l-244 -260h-102zM732 1607l265 260h144l2 -6l-295 -260h-114z" />
<glyph unicode="&#x4f3;" horiz-adv-x="1174" d="M46 0zM46 993v89h372v-89l-129 -10l264 -690l38 -130h6l296 820l-132 10v89h374v-89l-110 -9l-437 -1157q-42 -110 -109 -187t-196 -77q-21 0 -51 4.5t-44 9.5l14 100q12 -2 38.5 -4.5t37.5 -2.5q79 0 125 55t81 143l56 145l-384 971zM366 1271l213 261h133l3 -6 l-244 -260h-102zM610 1272l265 260h144l2 -6l-295 -260h-114z" />
<glyph unicode="&#x4f4;" horiz-adv-x="1491" d="M59 0zM59 1367v89h282h163v-89l-163 -13v-301q0 -186 89 -265.5t275 -79.5q102 0 200 14.5t199 43.5v588l-163 13v89h283h163v-89l-163 -13v-1253l163 -13v-88h-446v88l163 13v563q-101 -29 -196 -43.5t-203 -14.5q-240 0 -361.5 105t-121.5 342v301zM405 1641v157h174 v-157h-174zM875 1641v157h173v-157h-173z" />
<glyph unicode="&#x4f5;" horiz-adv-x="1335" d="M65 0zM65 994v88h282h163v-88l-163 -13v-173q0 -170 69.5 -237t224.5 -67q72 1 145.5 15t137.5 37v424l-163 13v89h445v-89l-163 -13v-879l163 -13v-88h-445v88l163 13v354q-69 -25 -142 -39.5t-141 -14.5q-209 0 -311 93.5t-102 313.5v173zM306 1306v157h174v-157h-174z M776 1306v157h173v-157h-173z" />
<glyph unicode="&#x4f6;" horiz-adv-x="1209" d="M77 0v88l163 13v1253l-163 13v89h1039v-307h-107l-9 205h-641v-1253l163 -13v-88h-445zM77 0zM402 79h120v-434h-120v434z" />
<glyph unicode="&#x4f7;" horiz-adv-x="1050" d="M72 0v88l163 13v879l-163 13v89h830v-18h15v-215h-88l-9 130h-466v-878l163 -13v-88h-445zM72 0zM397 79h120v-434h-120v434z" />
<glyph unicode="&#x4f8;" horiz-adv-x="1769" d="M78 0v88l163 13v1253l-163 13v89h163h119v-634h365q230 0 355 -111t125 -298q0 -188 -125.5 -300.5t-354.5 -112.5h-647zM78 0zM360 101h365q181 0 270.5 88.5t89.5 225.5q0 131 -90 218t-270 87h-365v-619zM360 1354v102h163v-89zM610 1640v157h174v-157h-174z M1080 1640v157h173v-157h-173zM1272 0v88l163 13v1253l-163 13v89h446v-89l-163 -13v-1253l163 -13v-88h-446z" />
<glyph unicode="&#x4f9;" horiz-adv-x="1625" d="M97 0v88l163 13v879l-163 13v89h163h119v-393h310q186 0 291 -95.5t105 -247.5q0 -153 -105 -249.5t-291 -96.5h-592zM97 0zM379 101h310q139 0 207.5 69.5t68.5 173.5q0 100 -69 171.5t-207 71.5h-310v-486zM379 980v102h163v-89zM514 1306v157h174v-157h-174zM984 1306 v157h173v-157h-173zM1139 0v88l163 13v879l-163 13v89h282v-981l163 -13v-88h-445z" />
<glyph unicode="&#x4fa;" horiz-adv-x="1180" d="M50 0zM50 754v102h612v-102h-612zM111 0v88l163 13v1253l-163 13v89h1039v-307h-107l-9 205h-641v-1253l163 -13v-88h-445zM173 -381l13 103q-2 1 39.5 -7t58.5 -8q73 0 113 52t40 147v142h119v-142q0 -146 -72 -226t-200 -80q-29 0 -54 5t-57 14z" />
<glyph unicode="&#x4fb;" horiz-adv-x="964" d="M54 562v102h612v-102h-612zM112 0v88l163 14v878l-163 14v88h830v-17h15v-216h-88l-9 130h-466v-877l163 -14v-88h-445zM192 -368l13 103q-2 1 39.5 -7t58.5 -8q73 0 113 52t40 147v142h119v-142q0 -146 -72 -226t-200 -80q-29 0 -54 5t-57 14z" />
<glyph unicode="&#x4fc;" horiz-adv-x="1397" d="M54 0v88l122 10l453 640l-438 619l-122 10v89h400v-89l-139 -6l368 -532l369 532l-137 6v89h399v-89l-122 -10l-437 -619l453 -640l123 -10v-88h-399v88l137 6l-384 553l-385 -553l138 -6v-88h-399zM54 0zM963 -428l13 103q-2 1 39.5 -7t58.5 -8q73 0 113 52t40 147v142 h119v-142q0 -146 -72 -226t-200 -80q-29 0 -54 5t-57 14z" />
<glyph unicode="&#x4fd;" horiz-adv-x="1192" d="M73 0v88l121 11l342 452l-326 431l-122 11v89h367v-89l-112 -6l258 -347l259 348l-111 5v89h367v-89l-121 -11l-326 -431l341 -452l122 -11v-88h-366v88l111 5l-275 368l-274 -368l111 -5v-88h-366zM73 0zM749 -428l13 103q-2 1 39.5 -7t58.5 -8q73 0 113 52t40 147v142 h119v-142q0 -146 -72 -226t-200 -80q-29 0 -54 5t-57 14z" />
<glyph unicode="&#x4fe;" horiz-adv-x="1397" d="M54 0v88l122 10l419 593h-191v102h186l-399 564l-122 10v89h400v-89l-139 -6l368 -532l369 532l-137 6v89h399v-89l-122 -10l-398 -564h207v-102h-213l420 -593l123 -10v-88h-399v88l137 6l-384 553l-385 -553l138 -6v-88h-399z" />
<glyph unicode="&#x4ff;" horiz-adv-x="1192" d="M73 0v88l121 11l307 406h-192v102h184l-283 375l-122 11v89h367v-89l-112 -6l258 -347l259 348l-111 5v89h367v-89l-121 -11l-284 -375h210v-102h-218l307 -406l122 -11v-88h-366v88l111 5l-275 368l-274 -368l111 -5v-88h-366z" />
<glyph unicode="&#x2000;" horiz-adv-x="953" />
<glyph unicode="&#x2001;" horiz-adv-x="1906" />
<glyph unicode="&#x2002;" horiz-adv-x="953" />
<glyph unicode="&#x2003;" horiz-adv-x="1906" />
<glyph unicode="&#x2004;" horiz-adv-x="635" />
<glyph unicode="&#x2005;" horiz-adv-x="476" />
<glyph unicode="&#x2006;" horiz-adv-x="317" />
<glyph unicode="&#x2007;" horiz-adv-x="317" />
<glyph unicode="&#x2008;" horiz-adv-x="238" />
<glyph unicode="&#x2009;" horiz-adv-x="381" />
<glyph unicode="&#x200a;" horiz-adv-x="105" />
<glyph unicode="&#x2010;" horiz-adv-x="793" d="M154 570v101h478v-101h-478z" />
<glyph unicode="&#x2011;" horiz-adv-x="793" d="M154 570v101h478v-101h-478z" />
<glyph unicode="&#x2012;" horiz-adv-x="793" d="M154 570v101h478v-101h-478z" />
<glyph unicode="&#x2013;" horiz-adv-x="1407" d="M161 686zM161 686v102h1086v-102h-1086z" />
<glyph unicode="&#x2014;" horiz-adv-x="1646" d="M165 686zM165 686v102h1336v-102h-1336z" />
<glyph unicode="&#x2018;" horiz-adv-x="364" d="M98 1077v171q0 93 37 180.5t103 149.5l72 -51q-48 -67 -70 -131.5t-22 -144.5v-174h-120z" />
<glyph unicode="&#x2019;" horiz-adv-x="364" d="M62 1107q47 65 69.5 130t22.5 145v178h119v-175q0 -94 -37.5 -182t-102.5 -148z" />
<glyph unicode="&#x201a;" horiz-adv-x="353" d="M41 -188q47 66 69.5 130.5t22.5 144.5v172h119v-170q0 -92 -37.5 -180t-102.5 -149z" />
<glyph unicode="&#x201c;" horiz-adv-x="612" d="M98 1077v171q0 93 37 180.5t103 149.5l72 -51q-48 -67 -70 -131.5t-22 -144.5v-174h-120zM98 1077zM345 1077v171q0 93 37 180.5t103 149.5l72 -51q-48 -67 -70 -131.5t-22 -144.5v-174h-120z" />
<glyph unicode="&#x201d;" horiz-adv-x="617" d="M68 1055zM68 1107q47 65 69.5 130t22.5 145v178h119v-175q0 -94 -37.5 -182t-102.5 -148zM312 1107q47 65 69.5 130t22.5 145v178h119v-175q0 -94 -37.5 -182t-102.5 -148z" />
<glyph unicode="&#x201e;" horiz-adv-x="593" d="M41 -188q47 66 69.5 130.5t22.5 144.5v172h119v-170q0 -92 -37.5 -180t-102.5 -149zM275 -188q46 66 68.5 130.5t22.5 144.5v172h120v-170q0 -92 -37.5 -180t-102.5 -149z" />
<glyph unicode="&#x2020;" horiz-adv-x="1124" d="M63 977v105h437v374h120v-374h433v-105h-433v-977h-120v977h-437z" />
<glyph unicode="&#x2021;" horiz-adv-x="1139" d="M71 0v101h425v878h-425v103h425v374h120v-374h444v-103h-444v-878h444v-101h-444v-416h-120v416h-425z" />
<glyph unicode="&#x2022;" horiz-adv-x="671" d="M135 717v65q0 79 50 129t134 50q85 0 135.5 -50.5t50.5 -128.5v-65q0 -79 -50.5 -128t-134.5 -49q-85 0 -135 49t-50 128z" />
<glyph unicode="&#x2026;" horiz-adv-x="1297" d="M166 0v164h137v-164h-137zM166 0zM576 0v164h137v-164h-137zM968 0v164h137v-164h-137z" />
<glyph unicode="&#x202f;" horiz-adv-x="381" />
<glyph unicode="&#x2030;" horiz-adv-x="1961" d="M76 1099v77q0 127 78.5 214t205.5 87q128 0 207 -87t79 -214v-77q0 -126 -78.5 -212.5t-205.5 -86.5q-128 0 -207 86.5t-79 212.5zM173 1099q0 -88 49 -150t140 -62q89 0 138 62t49 150v77q0 88 -49.5 151t-139.5 63q-89 0 -138 -63t-49 -151v-77zM366 169l711 1138 l74 -48l-711 -1138zM831 279v78q0 126 78.5 213t205.5 87q81 0 142 -39t95 -106q35 67 98 106t144 39q127 0 206 -87t79 -213v-78q0 -127 -78.5 -213.5t-204.5 -86.5q-82 0 -145.5 38.5t-98.5 105.5q-34 -67 -94.5 -105.5t-140.5 -38.5q-129 0 -207.5 86.5t-78.5 213.5z M928 279q0 -89 48.5 -151t140.5 -62q89 0 138 62t49 151v78q0 91 -49 152t-140 61q-90 0 -138.5 -61.5t-48.5 -151.5v-78zM1401 279q0 -89 48.5 -151t140.5 -62q89 0 137.5 62t48.5 151v78q0 91 -48.5 152t-139.5 61q-90 0 -138.5 -61.5t-48.5 -151.5v-78z" />
<glyph unicode="&#x2039;" horiz-adv-x="574" d="M68 546v19l295 379h105l-276 -389l276 -388h-105z" />
<glyph unicode="&#x203a;" horiz-adv-x="573" d="M83 162l276 388l-276 394h105l295 -384v-19l-295 -379h-105z" />
<glyph unicode="&#x2044;" horiz-adv-x="884" d="M42 169l711 1138l74 -48l-711 -1138z" />
<glyph unicode="&#x205f;" horiz-adv-x="476" />
<glyph unicode="&#x20ac;" horiz-adv-x="1051" d="M71 533v88h168v195h-168v89h168v37q0 244 135.5 389.5t356.5 145.5q56 0 111.5 -8t119.5 -23l-9 -106q-53 16 -109.5 25.5t-112.5 9.5q-172 0 -272 -116t-100 -315v-39h546v-89h-546v-195h546v-88h-546v-19q0 -198 101.5 -316t272.5 -118q57 0 113 8.5t107 25.5l9 -104 q-54 -15 -112.5 -23t-116.5 -8q-221 0 -357.5 145t-136.5 390v19h-168z" />
<glyph unicode="&#x2116;" horiz-adv-x="2257" d="M51 0v88l163 13v1253l-163 13v89h163h120l827 -1250l6 1v1147l-163 13v89h282h163v-89l-163 -13v-1354h-119l-827 1252l-6 -1v-1150l163 -13v-88h-446zM1505 1020v117q0 148 87.5 241.5t235.5 93.5t236 -93.5t88 -241.5v-117q0 -149 -87.5 -241.5t-234.5 -92.5 q-149 0 -237 92.5t-88 241.5zM1567 383v97h543v-97h-543zM1614 1020q0 -107 54.5 -173t161.5 -66q103 0 158.5 66.5t55.5 172.5v117q0 104 -56 171.5t-160 67.5t-159 -67.5t-55 -171.5v-117z" />
<glyph unicode="&#x2122;" horiz-adv-x="1246" d="M98 1387v69h384v-69h-153v-468h-73v468h-158zM560 919v537h93l172 -423h6l174 423h87v-537h-72v385l-6 1l-161 -386h-51l-164 399l-6 -1v-398h-72z" />
<glyph unicode="&#x2202;" horiz-adv-x="1171" d="M78 455q0 237 121.5 373.5t335.5 136.5q115 0 212 -46t151 -125l3 5q-18 256 -157 405t-367 231l39 104q303 -102 460 -310.5t157 -540.5v-153q0 -245 -137 -400.5t-344 -155.5t-340.5 137t-133.5 339zM198 455q0 -149 97 -261t261 -112q159 0 258.5 127.5t99.5 325.5v85 q-39 99 -136.5 170t-242.5 71q-169 0 -253 -113.5t-84 -292.5z" />
<glyph unicode="&#x2206;" horiz-adv-x="1417" d="M31 0l616 1456h113l598 -1456h-1327zM197 101h995l-487 1205h-6z" />
<glyph unicode="&#x220f;" horiz-adv-x="1500" d="M60 1367v89h1322v-89l-163 -13v-1597h-119v1597h-758v-1597h-119v1597z" />
<glyph unicode="&#x2211;" horiz-adv-x="1235" d="M69 -177l602 768l-602 772v93h1049v-307h-107l-9 205h-787l586 -751v-25l-585 -745h853l10 203h106v-305h-1116v92z" />
<glyph unicode="&#x221a;" horiz-adv-x="1171" d="M61 640v102h239l167 -455l34 -130h6l35 130l388 1169h124l-501 -1456h-96l-243 640h-153z" />
<glyph unicode="&#x221e;" horiz-adv-x="2114" d="M106 501v78q0 220 124 371.5t329 151.5q180 0 301.5 -126.5t196.5 -295.5q72 168 195 295t304 127q203 0 328 -152t125 -371v-78q0 -220 -125.5 -371t-329.5 -151q-181 0 -303 126.5t-194 296.5q-73 -170 -194.5 -296.5t-301.5 -126.5q-206 0 -330.5 151t-124.5 371z M225 501q0 -177 87.5 -299t248.5 -122q179 0 290.5 166t138.5 274v42q-29 109 -140 273.5t-291 164.5q-160 0 -247 -123t-87 -298v-78zM1124 520q26 -109 137.5 -274.5t292.5 -165.5q159 0 247 122t88 299v78q0 175 -87.5 298t-245.5 123q-182 0 -292.5 -164t-139.5 -274 v-42z" />
<glyph unicode="&#x222b;" horiz-adv-x="686" d="M-90 -418l14 99q15 -5 45.5 -10.5t52.5 -5.5q87 0 135 65t48 181v1329q0 163 82 252t229 89q33 0 67 -5t68 -14l-15 -96q-26 6 -49.5 9.5t-55.5 3.5q-98 0 -152 -63.5t-54 -175.5v-1329q0 -167 -80 -257.5t-223 -90.5q-30 0 -56 5t-56 14z" />
<glyph unicode="&#x2248;" horiz-adv-x="1169" d="M114 447q47 68 109 107t127 39q69 1 101 -11t133 -62q94 -48 124.5 -60t95.5 -12q63 0 124 39.5t110 109.5l7 -117q-48 -69 -110 -107.5t-126 -38.5q-66 0 -99 12.5t-119 56.5q-110 54 -139 65.5t-97 10.5q-64 0 -125 -40t-109 -109zM124 854q47 68 109 107t127 39 q69 1 101 -11t133 -62q90 -46 122.5 -58.5t97.5 -12.5q64 0 124.5 39t109.5 109l8 -117q-48 -69 -110 -107.5t-126 -38.5q-66 0 -99 12.5t-119 56.5q-106 52 -137 64t-99 11q-65 0 -125.5 -39.5t-108.5 -108.5z" />
<glyph unicode="&#x2260;" horiz-adv-x="1039" d="M147 422v106h275l169 305h-444v106h503l156 281l60 -43l-132 -238h247v-106h-306l-170 -305h476v-106h-535l-149 -269l-59 43l125 226h-216z" />
<glyph unicode="&#x2264;" horiz-adv-x="1051" d="M149 1v102h835v-102h-835zM149 1zM160 585v87l827 340v-113l-614 -245l-108 -25v-5l108 -26l614 -241v-113z" />
<glyph unicode="&#x2265;" horiz-adv-x="1056" d="M143 1v102h835v-102h-835zM143 1zM146 246v111l631 247l108 24v6l-108 26l-631 244v110l844 -340v-87z" />
<glyph unicode="&#x25ca;" horiz-adv-x="1037" d="M55 727l410 729h96l412 -729l-410 -727h-96zM179 727l297 -543l36 -86h6l37 86l294 543l-298 544l-35 86h-6l-37 -86z" />
<glyph unicode="&#x25fc;" horiz-adv-x="1080" d="M0 0v1080h1080v-1080h-1080z" />
</font>
</defs>
</svg>
